img image001 image001 image001 image001 image001 image001 image001 image001 image001 image001 image001 image001 image001 image001 image001

Planets Sun Sun Sun
Статистика раздачи
Автор: Снежана | Размер: 273.05 МБ | Добавлен: 26 июл 2013
Раздают: 1    Качают: 1
Скачать торрент
Скачать торрент
Описание торрента

СообщениеДобавлено: 26 июл 2013 

#77

Информация о фильме
Название: Открытие трех станций минского метрополитена к дню Великой Октябрьской Революции
Год выхода: 2012
Жанр: интервью
Производство: Белтелерадиокомпания
Страна: Беларусь
Продолжительность программы: 00:29:58
Перевод: Не требуется

Описание: В минском метро пополнение: «Грушевка», «Михалово» и «Петровщина». Новый участок подземки по традиции накануне 7 ноября открыл Президент. Три новые станции – это продолжение первой линии подземки. Она подросла на 5 с лишним километров, а юго-западные районы Минска получили быструю и удобную связь с центром города.
Так же Президент ответил на ряд вопросов местных СМИ, которые выясняли отношение Президента к Великой Октябрьской Революции, к президентским выборам в США 2012г и американской выборной системе в целом.

Файл
Кодек: XviD
Качество: DVBRip
Видео: 640x480, 25 к/с, 4:3, 1200 кбит/с
Звук: MP3, 64 кбит/с, 48 кгц, моно

General
Format : AVI
Format/Info : Audio Video Interleave
File size : 273 MiB
Duration : 29mn 58s
Overall bit rate : 1 274 Kbps
Writing application : VirtualDubMod 1.5.10.2 (build 2540/release)
Writing library : VirtualDubMod build 2540/release

Video
ID : 0
Format : MPEG-4 Visual
Format profile : Advanced Simple@L5
Format settings, BVOP : 2
Format settings, QPel : Yes
Format settings, GMC : No warppoints
Format settings, Matrix : Default (MPEG)
Muxing mode : Packed bitstream
Codec ID : XVID
Codec ID/Hint : XviD
Duration : 29mn 58s
Bit rate : 1 200 Kbps
Width : 640 pixels
Height : 480 pixels
Display aspect ratio : 4:3
Frame rate : 25.000 fps
Color space : YUV
Chroma subsampling : 4:2:0
Bit depth : 8 bits
Scan type : Progressive
Compression mode : Lossy
Bits/(Pixel*Frame) : 0.156
Stream size : 257 MiB (94%)
Writing library : XviD 1.2.1 (UTC 2008-12-04)

Audio
ID : 1
Format : MPEG Audio
Format version : Version 1
Format profile : Layer 3
Codec ID : 55
Codec ID/Hint : MP3
Duration : 29mn 58s
Bit rate mode : Constant
Bit rate : 64.0 Kbps
Channel(s) : 1 channel
Sampling rate : 48.0 KHz
Compression mode : Lossy
Stream size : 13.7 MiB (5%)
Alignment : Aligned on interleaves
Interleave, duration : 40 ms (1.00 video frame)
Interleave, preload duration : 504 ms




   Похожие торренты   Торрент   Размер 
В этой теме нет новых непрочитанных сообщений. Славянский Базар: Торжественное открытие (2012) DVBRip

6 | 3

1.7 ГБ

В этой теме нет новых непрочитанных сообщений. Праздничное шествие ветеранов Великой Отечественной Войны: Минск (2013) DVBRip

0 | 1

604.07 МБ

В этой теме нет новых непрочитанных сообщений. Новая Волна 2012. Торжественное открытие [24.07.2012] (2012) IPTVRip от Files-x

1 | 1

2.86 ГБ

В этой теме нет новых непрочитанных сообщений. Футбол. Чемпионат Европы 2012. Открытие (2012) HDTV 1080i

0 | 2

748.2 МБ

В этой теме нет новых непрочитанных сообщений. Аверченко Аркадий - Шутка мецената. Дюжина ножей в спину революции (2012) MP3

30 | 4

476.53 МБ

В этой теме нет новых непрочитанных сообщений. Открытие нового политического сезона. Программа Владимира Соловьёва [Эфир от 09.09] (2012) SATRip

0 | 1

1.54 ГБ

В этой теме нет новых непрочитанных сообщений. Александра Маринина - Закон трёх отрицаний (2012) MP3

148 | 10

616.13 МБ




Вы не можете начинать темы
Вы не можете отвечать на сообщения
Вы не можете редактировать свои сообщения
Вы не можете удалять свои сообщения
Вы не можете добавлять вложения

Перейти:  
Для Мосгорсуда, Роскомнадзора и рекламодателей: mosgorsud-torrent[собачка]yandex.ru
 Вход
ppkBB3cker v.2 © 2008-2014 @ PPK
[ Time : 0.062s | 15 Queries | GZIP : On ]

Торрент трекер RUTOR.IN, Не можете зайти на rutor.org? Какой новый адрес рутор? Какое зеркало рутор? Не работает rutor.org и зеркала? Тогда наш торрент специально для вас. Rutor.in неофициальное зеркало rutor. В случае если у Вас заблокирован rutor или вдруг Вы не можете на него зайти, то Вы без труда сможете скачать бесплатно и без рекламы последние новинки кино, игр, сериалов и прочего у нас, на Rutor.in. Не нужно использовать прокси, чтобы зайти на рутор, достаточно воспользоваться нашим ресурсом. Все новые фильмы, игры, сериалы, книги и музыка за 2013 и 2014 годы через торрент бесплатно. Скачивайте фильмы в хорошем качестве, игры для пк, xbox, playstation без регистрации. У нас вы найдете новые Зарубежные сериалы и Русские сериалы 2013, 2014, 2015 годов. Оставайтесь с нами, качайте любимые фильмы, игры, сериалы, книги и музыку.
cron