img image001 image001 image001 image001 image001 image001 image001 image001 image001 image001 image001 image001 image001 image001 image001

Planets Sun Sun Sun
Статистика раздачи
Автор: Снежана | Размер: 316.09 МБ | Добавлен: 26 июл 2013
Раздают: 4    Качают: 3
Скачать торрент
Скачать торрент
Описание торрента

СообщениеДобавлено: 26 июл 2013 

#77

Название: Битва за Черное море. Военные врачи
Год выпуска: 2011
Страна: Россия
Жанр: Документальный
Продолжительность: 00:25:58
Перевод: Не требуется
Русские субтитры: нет

Авторы: Роман Марходиа, Андрей Семак

Описание: «Портреты врачей тут будут однобокими, я знала их только в труде. Пусть же и эти небольшие заметки послужат для накопления материала о части из них, чтобы потом, не теряя никого, восполнить полную картину человеческого мужества и выдержанности, патриотизма и сознания воинского долга». Эти слова принадлежат военврачу Приморской армии Люсиль Цвангер. Документальный фильм о мужественности и самоотверженности людей, посвятивших себя военной медицине.

Качество: SATRip
Формат: AVI
Видео кодек: DivX
Аудио кодек: MP3
Видео: DivX 5 704x432 (1:1.630) 25.00fps 1500kbps Bits/(Pixel*Frame) 0.197
Аудио: MPEG Audio Layer 3 48000Hz 2ch 192 Kbps


D:ДокументалистикаБитва за Черное море. Военные врачи.avi
General
Complete name : D:ДокументалистикаБитва за Черное море. Военные врачи.avi
Format : AVI
Format/Info : Audio Video Interleave
File size : 316 MiB
Duration : 25mn 58s
Overall bit rate : 1 701 Kbps
Writing library : VirtualDub build 32842/release
Video #0
ID : 0
Format : MPEG-4 Visual
Format settings, BVOP : 1
Format settings, QPel : No
Format settings, GMC : No warppoints
Format settings, Matrix : Default (H.263)
Muxing mode : Packed bitstream
Codec ID : DX50
Codec ID/Hint : DivX 5
Duration : 25mn 58s
Bit rate : 1 499 Kbps
Width : 704 pixels
Height : 432 pixels
Display aspect ratio : 1.630
Frame rate : 25.000 fps
Color space : YUV
Chroma subsampling : 4:2:0
Bit depth : 8 bits
Scan type : Progressive
Compression mode : Lossy
Bits/(Pixel*Frame) : 0.197
Stream size : 279 MiB (88%)
Writing library : DivX 6.8.5 (UTC 2009-08-20)
Audio #1
ID : 1
Format : MPEG Audio
Format version : Version 1
Format profile : Layer 3
Mode : Joint stereo
Codec ID : 55
Codec ID/Hint : MP3
Duration : 25mn 58s
Bit rate mode : Constant
Bit rate : 192 Kbps
Channel(s) : 2 channels
Sampling rate : 48.0 KHz
Compression mode : Lossy
Stream size : 35.7 MiB (11%)
Alignment : Split accross interleaves
Interleave, duration : 40 ms (1.00 video frame)
Interleave, preload duration : 500 ms



   Похожие торренты   Торрент   Размер 
В этой теме нет новых непрочитанных сообщений. Битва за Черное море. Севастополь (2011) SATRip от Generalfilm

60 | 5

303.35 МБ

В этой теме нет новых непрочитанных сообщений. Анатолий Юновидов - Оборона Одессы. 1941. Первая битва за Черное море (2011) PDF

2 | 4

51.24 МБ

В этой теме нет новых непрочитанных сообщений. Прокурорская проверка. Врачи-убийцы [эфир от 04.04] (2011) SATRip

2 | 2

600.52 МБ

В этой теме нет новых непрочитанных сообщений. Чёрное море / Black Sea (2014) DVD-9

189 | 17

4.89 ГБ

В этой теме нет новых непрочитанных сообщений. Чёрное море / Black Sea (2014) HDRip-AVC | P

595 | 23

1.84 ГБ

В этой теме нет новых непрочитанных сообщений. Чёрное море / Black Sea (2014) WEBRip | P

6074 | 186

1.47 ГБ

В этой теме нет новых непрочитанных сообщений. Чёрное море / Black Sea (2014) HDRip-AVC | P

71 | 39

745.18 МБ




Вы не можете начинать темы
Вы не можете отвечать на сообщения
Вы не можете редактировать свои сообщения
Вы не можете удалять свои сообщения
Вы не можете добавлять вложения

Перейти:  
Для Мосгорсуда, Роскомнадзора и рекламодателей: mosgorsud-torrent[собачка]yandex.ru
 Вход
ppkBB3cker v.2 © 2008-2014 @ PPK
[ Time : 0.049s | 15 Queries | GZIP : Off ]

cron