img image001 image001 image001 image001 image001 image001 image001 image001 image001 image001 image001 image001 image001 image001 image001

Planets Sun Sun Sun
Статистика раздачи
Автор: Снежана | Размер: 31.31 ГБ | Добавлен: 27 июл 2013
Раздают: 1    Качают: 2
Скачать торрент
Скачать торрент
Описание торрента

СообщениеДобавлено: 27 июл 2013 

#77


Голос, Сезон 1

Год выпуска : 2012
Страна : Россия
Жанр : Pop, Show
Язык : Русский
Описание: Первый канал объявляет о запуске нового музыкального проекта «Голос», участники которого отбираются исключительно по своим вокальным данным. В шоу проходят только те, кто умеет петь, и делает это очень хорошо.

Заявки для участия в шоу принимались вплоть до начала сентября. Всего было принято свыше 10 тысяч заявок, из которых лишь каждая десятая преодолела стадию предварительного отбора. Из 1 тысячи претендентов в ходе очных прослушиваний и собеседований было отобрано 150 человек. Именно они станут главными героями первого этапа конкурса — «Прослушивание вслепую».

О проекте
«Голос» принципиально отличается от привычных вокальных конкурсов и шоу по поиску музыкальных талантов. Первый ищет лучшие голоса страны! Незаурядные вокальные данные — единственный способ попасть в проект! Только голос!

Из нескольких сотен претендентов на участие в проекте мегазвезды российской музыки («наставники») — люди, чьи песни любит и слушает вся страна — будут набирать свои команды. Уникальность процесса в том, что звезды будут оценивать только голоса конкурсантов, не видя их самих. По итогам прослушивания вслепую будут сформированы четыре команды.

Поединки
Наставники, помогая каждому из своих подопечных лучше подготовиться к финалу, одновременно будут вести в своих командах жесткий внутренний отбор в ходе так называемых «поединков» и «песен навылет». Это музыкальные дуэли, в которых участники одной команды будут противостоять друг другу, исполняя одну и ту же песню. Те, кому не повезет, отправятся домой, остальные продолжат путь к славе. Непростые решения наставник принимает единолично.

Выбирают зрители
На следующей стадии конкурса участникам придется бороться друг с другом уже в прямом эфире перед миллионами зрителей. На этом этапе кого-то из конкурсантов могут спасти зрители посредством SMS-голосования, кого-то спасают наставники, а оставшиеся исполнители сражаются друг с другом.
В конце концов у наставников останется в строю только по одному исполнителю, которые будут состязаться в певческом искусстве в грандиозном суперфинале. И только один из них станет обладателем титула «Лучший голос страны» и удостоится главного приза!


01. Вячеслав Ольховский "Я люблю тебя до слез"
02. Пелагея, Александр Градский, Леонид Агутин и Дима Билан "Let it be"
03. Юля Терещенко "Мир без любимого"
04. Александра Барташевич "I feel good"
05. Глеб Матвейчук "До свидания, мама"
06. Марк Юсим "This Love"
07. Ксения Герасимова "Валенки"
08. Маша Гойя "Simply the best"
09. Эдвард Хачарян "Historia de un Amir"
10. Анна Золотова "Ария Далилы"
11. Полина Зизак "At last (Etta James)"
12. Роман Втюрин "Скажите, девушки"
General
Complete name : Выпуск № 1 - (05.10.2012)_DVB by Kaddafi.mpg
Format : MPEG-PS
File size : 2.99 GiB
Duration : 1h 36mn
Overall bit rate mode : Variable
Overall bit rate : 4 440 Kbps
Video #224
ID : 224 (0xE0)
Format : MPEG Video
Format version : Version 2
Format profile : Main@Main
Format settings, BVOP : Yes
Format settings, Matrix : Custom
Duration : 1h 36mn
Bit rate mode : Variable
Bit rate : 4 159 Kbps
Maximum bit rate : 15.0 Mbps
Width : 720 pixels
Height : 576 pixels
Display aspect ratio : 16:9
Frame rate : 25.000 fps
Standard : PAL
Color space : YUV
Chroma subsampling : 4:2:0
Bit depth : 8 bits
Scan type : Interlaced
Scan order : Top Field First
Compression mode : Lossy
Bits/(Pixel*Frame) : 0.401
Stream size : 2.80 GiB (94%)
Audio #192
ID : 192 (0xC0)
Format : MPEG Audio
Format version : Version 1
Format profile : Layer 2
Duration : 1h 36mn
Bit rate mode : Constant
Bit rate : 192 Kbps
Channel(s) : 2 channels
Sampling rate : 48.0 KHz
Compression mode : Lossy
Stream size : 132 MiB (4%)

01. Евгений Кунгуров "Разговор со счастьем"
02. Ольга Клайн "I believe i can fly"
03. Павел Тарасов "Беловежская пуща"
04. Марина Матвеева "My all"
05. Анри Гогниашвили "You can leave your hat on"
06. Алина Башкина "Эхо любви"
07. Елена Оркина "Milord"
08. Влада "Mercy"
09. Константин Шустарев "Вьюга"
10. Дина Гарифуллина "Strong enough"
11. Андрей Максимов "Луч солнца золотого"
12. Мари Карне "Summertime"
General
Complete name : Выпуск № 2 - (12.10.2012)_DVB by Kaddafi.mpg
Format : MPEG-PS
File size : 4.06 GiB
Duration : 1h 34mn
Overall bit rate mode : Variable
Overall bit rate : 6 141 Kbps
Video #224
ID : 224 (0xE0)
Format : MPEG Video
Format version : Version 2
Format profile : Main@Main
Format settings, BVOP : Yes
Format settings, Matrix : Custom
Format settings, GOP : M=1, N=21
Duration : 1h 34mn
Bit rate mode : Variable
Bit rate : 5 827 Kbps
Maximum bit rate : 15.0 Mbps
Width : 720 pixels
Height : 576 pixels
Display aspect ratio : 16:9
Frame rate : 25.000 fps
Standard : PAL
Color space : YUV
Chroma subsampling : 4:2:0
Bit depth : 8 bits
Scan type : Interlaced
Scan order : Top Field First
Compression mode : Lossy
Bits/(Pixel*Frame) : 0.562
Stream size : 3.86 GiB (95%)
Audio #192
ID : 192 (0xC0)
Format : MPEG Audio
Format version : Version 1
Format profile : Layer 2
Duration : 1h 34mn
Bit rate mode : Constant
Bit rate : 192 Kbps
Channel(s) : 2 channels
Sampling rate : 48.0 KHz
Compression mode : Lossy
Stream size : 130 MiB (3%)

01. Анастасия Спиридонова "Simply the best"
02. Филипп Черевко "Парень чернокожий"
03. Севара "Je T`aime"
04. Артем Качарян "Hello"
05. Дарья Летичевская "Останусь"
06. Олег Митринюк "Я вижу свет"
07. Светлана Сайдиева "I will always love you"
08. Анастасия Кашникова "Мир без любимого"
09. Артем Демишев "Feeling good"
10. Эльмира Калимуллина "Колыбельная"
11. Рената Байкова "At last"
12. Артур Васильев "Con te partiro"
General
Complete name : Выпуск № 3 - (19.10.2012)_DVB by Kaddafi.mpg
Format : MPEG-PS
File size : 5.58 GiB
Duration : 1h 35mn
Overall bit rate mode : Variable
Overall bit rate : 8 331 Kbps
Video #224
ID : 224 (0xE0)
Format : MPEG Video
Format version : Version 2
Format profile : Main@Main
Format settings, BVOP : Yes
Format settings, Matrix : Custom
Format settings, GOP : M=2, N=18
Duration : 1h 35mn
Bit rate mode : Variable
Bit rate : 7 782 Kbps
Maximum bit rate : 15.0 Mbps
Width : 720 pixels
Height : 576 pixels
Display aspect ratio : 16:9
Frame rate : 25.000 fps
Standard : PAL
Color space : YUV
Chroma subsampling : 4:2:0
Bit depth : 8 bits
Scan type : Interlaced
Scan order : Top Field First
Compression mode : Lossy
Bits/(Pixel*Frame) : 0.751
Stream size : 5.21 GiB (93%)
Audio #192
ID : 192 (0xC0)
Format : MPEG Audio
Format version : Version 1
Format profile : Layer 2
Duration : 1h 35mn
Bit rate mode : Constant
Bit rate : 384 Kbps
Channel(s) : 2 channels
Sampling rate : 48.0 KHz
Compression mode : Lossy
Delay relative to video : -40ms
Stream size : 263 MiB (5%)

01. Фeдор Рытиков "Скажите, девушки"
02. Маргарита Позоян "I will always love you"
03. Кристина Коновалова "Симона"
04. Сослан Кулумбеков "Historia de un amor"
05. Оксана Мухина "Woman in love"
06. Дина Гарипова "А напоследок я скажу"
07. Оксана Петрова "Я то, что надо"
08. Ачи Пурцеладзе "Summertime"
09. Анна-Ника Вакарь "Улетаю"
10. Софья Авазашвили "Domino"
11. Илья Юдичев "Caruso"
12. Иделия Мухаметзянова "Let it be"
General
Complete name : Выпуск № 4 - (26.10.2012)_DVB by Kaddafi.mpg
Format : MPEG-PS
File size : 5.84 GiB
Duration : 1h 40mn
Overall bit rate mode : Variable
Overall bit rate : 8 321 Kbps
Video #224
ID : 224 (0xE0)
Format : MPEG Video
Format version : Version 2
Format profile : Main@Main
Format settings, BVOP : Yes
Format settings, Matrix : Custom
Format settings, GOP : M=2, N=18
Duration : 1h 40mn
Bit rate mode : Variable
Bit rate : 7 771 Kbps
Maximum bit rate : 15.0 Mbps
Width : 720 pixels
Height : 576 pixels
Display aspect ratio : 16:9
Frame rate : 25.000 fps
Standard : PAL
Color space : YUV
Chroma subsampling : 4:2:0
Bit depth : 8 bits
Scan type : Interlaced
Scan order : Top Field First
Compression mode : Lossy
Bits/(Pixel*Frame) : 0.750
Stream size : 5.46 GiB (93%)
Audio #192
ID : 192 (0xC0)
Format : MPEG Audio
Format version : Version 1
Format profile : Layer 2
Duration : 1h 40mn
Bit rate mode : Constant
Bit rate : 384 Kbps
Channel(s) : 2 channels
Sampling rate : 48.0 KHz
Compression mode : Lossy
Delay relative to video : -40ms
Stream size : 276 MiB (5%)

01. Александр Поздняков "You can leave your hat on"
02. Никита Поздняков "Unchain my heart"
03. Ольга Ковалева "Чудесная страна"
04. Наталья Терехова "My all"
05. Валерия Гринюк "Останусь"
06. Виталий Милушев "Актриса"
07. Вероника Шрамко "Domino"
08. Павел Пушкин ария Далилы из оперы "Самсон и Данила"
09. Гаяна Захарова "Колыбельная"
10. Илья Пичко "Это здорово"
11. Лия Саркисян "At last"
12. Анжелика Фролова и Виктория Кузьмина "Simply the Best"
General
Complete name : Выпуск № 5 - (04.11.2012)_DVB by Kaddafi.mpg
Format : MPEG-PS
File size : 4.03 GiB
Duration : 1h 34mn
Overall bit rate mode : Variable
Overall bit rate : 6 120 Kbps
Video #224
ID : 224 (0xE0)
Format : MPEG Video
Format version : Version 2
Format profile : Main@Main
Format settings, BVOP : Yes
Format settings, Matrix : Custom
Duration : 1h 34mn
Bit rate mode : Variable
Bit rate : 5 806 Kbps
Maximum bit rate : 15.0 Mbps
Width : 720 pixels
Height : 576 pixels
Display aspect ratio : 16:9
Frame rate : 25.000 fps
Standard : PAL
Color space : YUV
Chroma subsampling : 4:2:0
Bit depth : 8 bits
Scan type : Interlaced
Scan order : Top Field First
Compression mode : Lossy
Bits/(Pixel*Frame) : 0.560
Stream size : 3.83 GiB (95%)
Audio #192
ID : 192 (0xC0)
Format : MPEG Audio
Format version : Version 1
Format profile : Layer 2
Duration : 1h 34mn
Bit rate mode : Constant
Bit rate : 192 Kbps
Channel(s) : 2 channels
Sampling rate : 48.0 KHz
Compression mode : Lossy
Delay relative to video : 1ms
Stream size : 130 MiB (3%)

01. Злат Хабибуллин "I feel Good"
02. Екатерина Печкурова "Любовь настала"
03. Дарья Дубовицкая "I will always love you''
04. Лев Эльгардт "Я то, что надо"
05. Валерия Ахатова "Domino"
06. Алекс Малиновский "Беловежская пуща"
07. Анастасия Иван "Je taime"
08. Анастасия Чеважевская "Мир без любимого"
09. Алексей Исмаилов "Sorry seems to be the hardest word''
10. Алиса Гелисс "This love"
11. Методие Бужор "Dicitencello vuie"
12. Джулианна Стрейнджлав "You can leave your hat on"
General
Complete name : Выпуск № 6 - (09.11.2012)_DVB by Kaddafi.mpg
Format : MPEG-PS
File size : 4.11 GiB
Duration : 1h 36mn
Overall bit rate mode : Variable
Overall bit rate : 6 121 Kbps
Video #224
ID : 224 (0xE0)
Format : MPEG Video
Format version : Version 2
Format profile : Main@Main
Format settings, BVOP : Yes
Format settings, Matrix : Custom
Format settings, GOP : M=1, N=23
Duration : 1h 36mn
Bit rate mode : Variable
Bit rate : 5 807 Kbps
Maximum bit rate : 15.0 Mbps
Width : 720 pixels
Height : 576 pixels
Display aspect ratio : 16:9
Frame rate : 25.000 fps
Standard : PAL
Color space : YUV
Chroma subsampling : 4:2:0
Bit depth : 8 bits
Scan type : Interlaced
Scan order : Top Field First
Compression mode : Lossy
Bits/(Pixel*Frame) : 0.560
Stream size : 3.90 GiB (95%)
Audio #192
ID : 192 (0xC0)
Format : MPEG Audio
Format version : Version 1
Format profile : Layer 2
Duration : 1h 36mn
Bit rate mode : Constant
Bit rate : 192 Kbps
Channel(s) : 2 channels
Sampling rate : 48.0 KHz
Compression mode : Lossy
Delay relative to video : 17ms
Stream size : 132 MiB (3%)


01. Анастасия Спиридонова и Злат Хабибуллин "Бросай"
02. Полина Зизак и Дарья Дубовицкая "Proud Mary"
03. Оксана Петрова и Ачи Пурцеладзе "Мой друг играет блюз"
04. Анастасия Чеважевская и Артем Демишев "Vivo per lei"
05. Александра Барташевич и Александр Поздняков "Crazy"
06. Илья Юдичев и Павел Тарасов "O sole mio"
07. Ольга Кляйн и Валерия Ахатова "Ain`t nobody"
08. Мария Гойя и Анна Золотова "The Diva dance"
потом
потом
General
Complete name : Выпуск № 7 - (16.11.2012)_DVB by Kaddafi.mpg
Format : MPEG-PS
File size : 4.70 GiB
Duration : 1h 49mn
Overall bit rate mode : Variable
Overall bit rate : 6 120 Kbps
Video #224
ID : 224 (0xE0)
Format : MPEG Video
Format version : Version 2
Format profile : Main@Main
Format settings, BVOP : Yes
Format settings, Matrix : Custom
Format settings, GOP : M=3, N=24
Duration : 1h 49mn
Bit rate mode : Variable
Bit rate : 5 806 Kbps
Maximum bit rate : 15.0 Mbps
Width : 720 pixels
Height : 576 pixels
Display aspect ratio : 16:9
Frame rate : 25.000 fps
Standard : PAL
Color space : YUV
Chroma subsampling : 4:2:0
Bit depth : 8 bits
Scan type : Interlaced
Scan order : Top Field First
Compression mode : Lossy
Bits/(Pixel*Frame) : 0.560
Stream size : 4.46 GiB (95%)
Audio #192
ID : 192 (0xC0)
Format : MPEG Audio
Format version : Version 1
Format profile : Layer 2
Duration : 1h 49mn
Bit rate mode : Constant
Bit rate : 192 Kbps
Channel(s) : 2 channels
Sampling rate : 48.0 KHz
Compression mode : Lossy
Delay relative to video : 9ms
Stream size : 151 MiB (3%)



Качество: DVB
Формат: MPG
Видео кодек: MPEG2
Аудио кодек: MPEG1
Видео: MPEG-2, 720x576 @ 1024 576 (16:9) 25.00fps , Битрэйт у всех выпусков разный, но качество как всегда на высоте, самый меньший битрэйт 4190 Kbit/s, потому - что записи с разных источников из - за проделок Первого канала, смотрите пожалуйста Media Information (MI) под спойлером для каждого выпуска.
Аудио: MPEG Audio, 48 kHz, 2 ch, 384 kbps
Внимание ! Раздача ведётся путём добавления новых серий
Внимание ! Раздача ведётся путём добавления новых серий; при каждом добавлении создаётся новый торрент.
Чтобы начать докачку новой серии, пользователям необходимо сделать следующее:
1) остановить скачивание
2) удалить старый торрент у себя из клиента (старые серии удалять не надо)
3) скачать новый торрент и запустить его у себя в клиенте вместо старого, при этом указать клиенту путь в старую папку куда и должно происходить скачивание новых серий.
Ваш клиент при этом должен произвести хеширование (проверку) старой папки (если не производит сам - помогите ему сделать это), и будет докачивать только те серии которых у вас ещё нет. Старые серии при этом не удаляются, а продолжают раздаваться!
Eсли вы уже удалили старые серии, то предотвратить повторную закачку старых серий можно, отжав галочку в соответствовавших местах при запуске нового торрента.



   Похожие торренты   Торрент   Размер 
В этой теме нет новых непрочитанных сообщений. Голос [Выпуски 01-13] (2012) SATRip

24 | 23

18.38 ГБ

В этой теме нет новых непрочитанных сообщений. Голос. Дети [Выпуски 01-05] (2014) SATRip

21 | 27

7.68 ГБ

В этой теме нет новых непрочитанных сообщений. Голос. Дети [Выпуски 01-03] (2014) SATRip

61 | 29

4.65 ГБ

В этой теме нет новых непрочитанных сообщений. Голос. Дети [Выпуски 01-02] (2014) SATRip

169 | 118

3.22 ГБ

В этой теме нет новых непрочитанных сообщений. Голос. Дети [Выпуски 01-04] (2014) SATRip

0 | 12

6.08 ГБ

В этой теме нет новых непрочитанных сообщений. Голос. Второй сезон [Выпуски 01-17] (2013) SATRip

33 | 8

26.72 ГБ

В этой теме нет новых непрочитанных сообщений. Голос. Второй сезон [Выпуски 01-17 из 17] (2013) HDTVRip

5 | 8

30.33 ГБ




Вы не можете начинать темы
Вы не можете отвечать на сообщения
Вы не можете редактировать свои сообщения
Вы не можете удалять свои сообщения
Вы не можете добавлять вложения

Перейти:  
Для Мосгорсуда, Роскомнадзора и рекламодателей: mosgorsud-torrent[собачка]yandex.ru
 Вход
ppkBB3cker v.2 © 2008-2014 @ PPK
[ Time : 1.355s | 14 Queries | GZIP : On ]

Торрент трекер RUTOR.IN, Не можете зайти на rutor.org? Какой новый адрес рутор? Какое зеркало рутор? Не работает rutor.org и зеркала? Тогда наш торрент специально для вас. Rutor.in неофициальное зеркало rutor. В случае если у Вас заблокирован rutor или вдруг Вы не можете на него зайти, то Вы без труда сможете скачать бесплатно и без рекламы последние новинки кино, игр, сериалов и прочего у нас, на Rutor.in. Не нужно использовать прокси, чтобы зайти на рутор, достаточно воспользоваться нашим ресурсом. Все новые фильмы, игры, сериалы, книги и музыка за 2013 и 2014 годы через торрент бесплатно. Скачивайте фильмы в хорошем качестве, игры для пк, xbox, playstation без регистрации. У нас вы найдете новые Зарубежные сериалы и Русские сериалы 2013, 2014, 2015 годов. Оставайтесь с нами, качайте любимые фильмы, игры, сериалы, книги и музыку.