img image001 image001 image001 image001 image001 image001 image001 image001 image001 image001 image001 image001 image001 image001 image001

Planets Sun Sun Sun
Статистика раздачи
Автор: Снежана | Размер: 75.62 МБ | Добавлен: 27 июл 2013
Раздают: 0    Качают: 2
Скачать торрент
Скачать торрент
Описание торрента

СообщениеДобавлено: 27 июл 2013 

#77

Информация о фильме
Название: Интервью Президента Беларуси Александра Лукашенко британскому информационному агенству Рейтер [Телеверсия]
Год выхода: 2012
Жанр: интервью
Производство: Белтелерадиокомпания
Страна: Беларусь
Продолжительность программы: 00:15:43
Перевод: Не требуется

Описание: Президент Беларуси Александр Лукашенко 26 ноября дал интервью одному из крупнейших международных информационных агентств "Рейтер". Беседа продолжалась более полутора часов. Главе государства было задано около 20 вопросов, большинство из которых касались социально-экономического развития страны, модернизации и возможной приватизации предприятий. Также Александр Лукашенко ответил на вопросы о совершенствовании политической системы Беларуси, развитии демократии, внешней политике, взаимоотношениях с Евросоюзом и Россией.

Файл
Кодек: XviD
Качество: DVBRip
Видео: 640x480, 25 к/с, 4:3, 600 кбит/с
Звук: MP3, 64 кбит/с, 48 кгц, моно

Format : AVI
Format/Info : Audio Video Interleave
File size : 75.6 MiB
Duration : 15mn 43s
Overall bit rate : 672 Kbps
Writing application : VirtualDubMod 1.5.10.2 (build 2540/release)
Writing library : VirtualDubMod build 2540/release

Video
ID : 0
Format : MPEG-4 Visual
Format profile : Advanced Simple@L5
Format settings, BVOP : 2
Format settings, QPel : Yes
Format settings, GMC : No warppoints
Format settings, Matrix : Default (MPEG)
Muxing mode : Packed bitstream
Codec ID : XVID
Codec ID/Hint : XviD
Duration : 15mn 43s
Bit rate : 598 Kbps
Width : 640 pixels
Height : 480 pixels
Display aspect ratio : 4:3
Frame rate : 25.000 fps
Color space : YUV
Chroma subsampling : 4:2:0
Bit depth : 8 bits
Scan type : Progressive
Compression mode : Lossy
Bits/(Pixel*Frame) : 0.078
Stream size : 67.3 MiB (89%)
Writing library : XviD 1.2.1 (UTC 2008-12-04)

Audio
ID : 1
Format : MPEG Audio
Format version : Version 1
Format profile : Layer 3
Codec ID : 55
Codec ID/Hint : MP3
Duration : 15mn 43s
Bit rate mode : Constant
Bit rate : 64.0 Kbps
Channel(s) : 1 channel
Sampling rate : 48.0 KHz
Compression mode : Lossy
Stream size : 7.20 MiB (10%)
Alignment : Aligned on interleaves
Interleave, duration : 40 ms (1.00 video frame)
Interleave, preload duration : 504 ms




   Похожие торренты   Торрент   Размер 
В этой теме нет новых непрочитанных сообщений. Интервью Президента Беларуси Александра Лукашенко британской газете Индепендент [Телеверсия] (2012) DVBRip

0 | 2

344.34 МБ

В этой теме нет новых непрочитанных сообщений. Пресс-конференция Президента РБ А.Г.Лукашенко СМИ регионов России [Телеверсия] (2012) DVBRip

0 | 1

456.05 МБ

В этой теме нет новых непрочитанных сообщений. Александр Лукашенко: Интервью Президента Республики Беларусь программе Шустер LIVE (2014) DVBRip

384 | 96

684.84 МБ

В этой теме нет новых непрочитанных сообщений. Новогоднее поздравление Президента Республики Беларусь Лукашенко А.Г. (2012) DVBRip

1 | 3

64.01 МБ

В этой теме нет новых непрочитанных сообщений. Новогоднее поздравление Президента Республики Беларусь Лукашенко А.Г. (2013) DVBRip

0 | 2

108.32 МБ

В этой теме нет новых непрочитанных сообщений. Новогоднее обращение Президента Республики Беларусь А. Г. Лукашенко (2011) DVBRip

2 | 2

40.9 МБ

В этой теме нет новых непрочитанных сообщений. Встреча Президента Республики Беларусь A.Г. Лукашенко с руководителями крупнейших белорусских СМИ (2014) DVBRip

0 | 2

498.84 МБ




Вы не можете начинать темы
Вы не можете отвечать на сообщения
Вы не можете редактировать свои сообщения
Вы не можете удалять свои сообщения
Вы не можете добавлять вложения

Перейти:  
Для Мосгорсуда, Роскомнадзора и рекламодателей: mosgorsud-torrent[собачка]yandex.ru
 Вход
ppkBB3cker v.2 © 2008-2014 @ PPK
[ Time : 0.024s | 14 Queries | GZIP : Off ]

Торрент трекер RUTOR.IN, Не можете зайти на rutor.org? Какой новый адрес рутор? Какое зеркало рутор? Не работает rutor.org и зеркала? Тогда наш торрент специально для вас. Rutor.in неофициальное зеркало rutor. В случае если у Вас заблокирован rutor или вдруг Вы не можете на него зайти, то Вы без труда сможете скачать бесплатно и без рекламы последние новинки кино, игр, сериалов и прочего у нас, на Rutor.in. Не нужно использовать прокси, чтобы зайти на рутор, достаточно воспользоваться нашим ресурсом. Все новые фильмы, игры, сериалы, книги и музыка за 2013 и 2014 годы через торрент бесплатно. Скачивайте фильмы в хорошем качестве, игры для пк, xbox, playstation без регистрации. У нас вы найдете новые Зарубежные сериалы и Русские сериалы 2013, 2014, 2015 годов. Оставайтесь с нами, качайте любимые фильмы, игры, сериалы, книги и музыку.