img image001 image001 image001 image001 image001 image001 image001 image001 image001 image001 image001 image001 image001 image001 image001

Planets Sun Sun Sun
Статистика раздачи
Автор: Снежана | Размер: 746.04 МБ | Добавлен: 26 июл 2013
Раздают: 6    Качают: 3
Скачать торрент
Скачать торрент
Описание торрента

СообщениеДобавлено: 26 июл 2013 

#77

Год выпуска : 2012
Страна : Россия
Жанр : Документальный
Продолжительность: 00:42:07
Язык : Русский


Описание: Максим Фадеев впервые расскажет все, как есть. Кто на самом деле поет за Глюкозу, как создавался проект Линда? Почему они до сих пор не разговаривают друг с другом? Отчего он уехал из России и как боролся с глухотой? Он молчал 15 лет и теперь хочет развенчать все слухи о себе. И это будет его исповедь – только в «Центральном телевидении».



Общее
Идентификатор : 1 (0x1)
Полное имя : D:Максим Фадеев ЦТ Откровение.ts
Формат : MPEG-TS
Размер файла : 746 Мбайт
Продолжительность : 42 м.
Общий поток : 2476 Кбит/сек

Видео
Идентификатор : 1141 (0x475)
Идентификатор меню : 1 (0x1)
Формат : AVC
Формат/Информация : Advanced Video Codec
Профиль формата : Main@L3.0
Параметр CABAC формата : Да
Параметр ReFrames формата : 3 кадра
Параметр GOP формата : M=4, N=24
Идентификатор кодека : 27
Продолжительность : 42 м.
Битрейт : 2160 Кбит/сек
Ширина : 720 пикселей
Высота : 576 пикселей
Соотношение сторон : 4:3
Частота кадров : 25,000 кадров/сек
Стандарт вещания : Component
Цветовое пространство : YUV
Субдискретизация насыщенности : 4:2:0
Битовая глубина : 8 бит
Тип развёртки : Чересстрочная
Порядок развёртки : Верхнее поле первое
Бит/(Пиксели*Кадры) : 0.208
Размер потока : 651 Мбайт (87%)
Основные цвета : BT.470-6 System B, BT.470-6 System G, BT.601-6 625, BT.1358 625, BT.1700 625 PAL, BT.1700 625 SECAM
Характеристики трансфера : BT.470-6 System B, BT.470-6 System G
Коэффициенты матрицы : BT.470-6 System B, BT.470-6 System G, BT.601-6 625, BT.1358 625, BT.1700 625 PAL, BT.1700 625 SECAM, IEC 61966-2-4 601

Аудио
Идентификатор : 1142 (0x476)
Идентификатор меню : 1 (0x1)
Формат : MPEG Audio
Версия формата : Version 1
Профиль формата : Layer 2
Идентификатор кодека : 3
Продолжительность : 42 м.
Вид битрейта : Постоянный
Битрейт : 192 Кбит/сек
Каналы : 2 канала
Частота : 48,0 КГц
Метод сжатия : С потерями
Размер потока : 57,8 Мбайт (8%)
Язык : English

Качество: DVB
Формат: TS
Видео кодек: AVC
Аудио кодек: MPEG1
Видео: MPEG4 Video (H264) 720x576 (4:3) 25.00fps 2160 Кбит/сек
Аудио:
MPEG Audio 48000Hz stereo 192 Кбит/сек



   Похожие торренты   Торрент   Размер 
В этой теме нет новых непрочитанных сообщений. Максим Фадеев - Коллекция [6 Альбомов] (1991-2001) FLAC

21 | 6

2.41 ГБ

В этой теме нет новых непрочитанных сообщений. Савва. Сердце воина (Максим Фадеев) [2015, мультфильм, приключения, фэнтези, WEB-DLRip]

468 | 6

703.78 МБ

В этой теме нет новых непрочитанных сообщений. Савва. Сердце воина (Максим Фадеев) [2015, мультфильм, приключения, фэнтези, WEB-DLRip]

1157 | 10

1.37 ГБ

В этой теме нет новых непрочитанных сообщений. Савва. Сердце воина [RUS] (Максим Фадеев) [2015, мультфильм, приключения, фэнтези, семейный, BDRip 720p] / Мультфильмы (HD/BD Video)

585 | 17

4.08 ГБ

В этой теме нет новых непрочитанных сообщений. Dj vandarloh - Откровение синдрома. RemiX.Lafe's [Избранное] (2012) MP3

0 | 2

109.36 МБ

В этой теме нет новых непрочитанных сообщений. Трилогия падения. Глава 3: Откровение / The Fall Trilogy: Chapter 3 - Revelation (2012) PC

8 | 2

112.29 МБ

В этой теме нет новых непрочитанных сообщений. Максим Коломиец - Наследники «Тридцатьчетверки» – Т-34М, Т-43, Т-34-100, Т-44 (2012) PDF

62 | 5

114.5 МБ




Вы не можете начинать темы
Вы не можете отвечать на сообщения
Вы не можете редактировать свои сообщения
Вы не можете удалять свои сообщения
Вы не можете добавлять вложения

Перейти:  
Для Мосгорсуда, Роскомнадзора и рекламодателей: mosgorsud-torrent[собачка]yandex.ru
 Вход
ppkBB3cker v.2 © 2008-2014 @ PPK
[ Time : 1.398s | 15 Queries | GZIP : Off ]

Торрент трекер RUTOR.IN, Не можете зайти на rutor.org? Какой новый адрес рутор? Какое зеркало рутор? Не работает rutor.org и зеркала? Тогда наш торрент специально для вас. Rutor.in неофициальное зеркало rutor. В случае если у Вас заблокирован rutor или вдруг Вы не можете на него зайти, то Вы без труда сможете скачать бесплатно и без рекламы последние новинки кино, игр, сериалов и прочего у нас, на Rutor.in. Не нужно использовать прокси, чтобы зайти на рутор, достаточно воспользоваться нашим ресурсом. Все новые фильмы, игры, сериалы, книги и музыка за 2013 и 2014 годы через торрент бесплатно. Скачивайте фильмы в хорошем качестве, игры для пк, xbox, playstation без регистрации. У нас вы найдете новые Зарубежные сериалы и Русские сериалы 2013, 2014, 2015 годов. Оставайтесь с нами, качайте любимые фильмы, игры, сериалы, книги и музыку.
cron