img image001 image001 image001 image001 image001 image001 image001 image001 image001 image001 image001 image001 image001 image001 image001

Planets Sun Sun Sun
Статистика раздачи
Автор: Снежана | Размер: 1.46 ГБ | Добавлен: 26 июл 2013
Раздают: 46    Качают: 4
Скачать торрент
Скачать торрент
Описание торрента

СообщениеДобавлено: 26 июл 2013 

#77

Информация о фильме
Название: Сталинградская Битва (2012) DVBRip
Год выхода: 2012
Производство Телеканал Звезда
Жанр: документальный, история
Страна: Россия
Продолжительность программы: 02:36:37
Перевод: Не требуется

Описание: Сталинградская Битва - самое масштабное историческое сражение за всю историю 20-го века! Ожесточенные бои, которые не прекращались ни на секунду на протяжении двухсот дней и ночей! По приблизительным подсчетам суммарные потери обеих сторон, в этом сражении, превысили 2-а миллиона человек!!
Известные всем факты и эпизоды Сталинградской Битвы - это далеко не вся её история. За кадром оказались сюжеты из жизни многих рядовых участников сражения - яркие документальные фрагменты, по сути, ставшие основой героической хроники этого эпохального события!!

Содержание:

Начало: Планы Гитлера на лето 1942 года сосредоточились на южном направлении фронта. Немцы собирались разбить советские войска на южном фланге, прорваться на Кавказ к нефтяным промыслам Майкопа, Грозного, Баку, перейти через Кавказский хребет и одновременно перерезать в районе Сталинграда Волгу как важнейшую транспортную артерию страны. Эта операция значилась под кодовым названием "Блау". Что на самом деле произошло летом 1942 года? Свидетельства очевидцев и мнения историков.

Война в городе: Сентябрь 1942 года. Под напором противника войска 62-й армий вынуждены отойти и занять оборону на внутреннем обводе сталинградских укреплений, то есть фактически в самом городе, общая протяженность которого по берегу Волги составляет около 40 км. Отошедшие в Сталинград части и соединения оказываются изолированными от главных сил фронта. Ситуация становится критической - создается непосредственная угроза захвата Сталинграда немецкими войсками.

В наступление: Сталин предлагает Жукову назначить дату контрнаступления. Основные силы фронтов Ватутина и Еременко должны быть готовы нанести удар по группировке немецких войск под Сталинградом. Но, несмотря на сверхсекретность подготовки, передвижения советских войск враг заметил.

Охота на Паулюса: Январь 1943 года. Положение окруженной советскими войсками армии Фридриха Паулюса резко ухудшилось. Территория, занимаемая остатками его 6-й армии, значительно сократилась и почти насквозь простреливалась огнем советской артиллерии. Запасы боеприпасов, горючего и продовольствия у гитлеровцев были на исходе. Расчеты немецкого командования на организацию непрерывного снабжения окруженных войск по воздуху провалились. Регулярное транспортное сообщение немецких самолетов из Сталинграда силами советских войск было приостановлено.

Файл
Кодек: XviD
Качество: DVBRip
Видео: 704x392, 25 к/с, 16:9, 1200 кбит/с
Звук: MP3, 128 кбит/с, 48 кгц, стерео

Format : AVI
Format/Info : Audio Video Interleave
File size : 1.46 GiB
Duration : 2h 36mn
Overall bit rate : 1 338 Kbps
Writing application : VirtualDubMod 1.5.10.2 (build 2540/release)
Writing library : VirtualDubMod build 2540/release

Video
ID : 0
Format : MPEG-4 Visual
Format profile : Advanced Simple@L5
Format settings, BVOP : 2
Format settings, QPel : Yes
Format settings, GMC : No warppoints
Format settings, Matrix : Default (MPEG)
Muxing mode : Packed bitstream
Codec ID : XVID
Codec ID/Hint : XviD
Duration : 2h 36mn
Bit rate : 1 200 Kbps
Width : 704 pixels
Height : 392 pixels
Display aspect ratio : 16:9
Frame rate : 25.000 fps
Color space : YUV
Chroma subsampling : 4:2:0
Bit depth : 8 bits
Scan type : Progressive
Compression mode : Lossy
Bits/(Pixel*Frame) : 0.174
Stream size : 1.31 GiB (90%)
Writing library : XviD 1.2.1 (UTC 2008-12-04)

Audio
ID : 1
Format : MPEG Audio
Format version : Version 1
Format profile : Layer 3
Mode : Joint stereo
Mode extension : MS Stereo
Codec ID : 55
Codec ID/Hint : MP3
Duration : 2h 36mn
Bit rate mode : Constant
Bit rate : 128 Kbps
Channel(s) : 2 channels
Sampling rate : 48.0 KHz
Compression mode : Lossy
Stream size : 143 MiB (10%)
Alignment : Aligned on interleaves
Interleave, duration : 40 ms (1.00 video frame)
Interleave, preload duration : 504 ms




   Похожие торренты   Торрент   Размер 
В этой теме нет новых непрочитанных сообщений. Сталинградская битва (1949) DVDRip от New-Team

31 | 6

2.18 ГБ

В этой теме нет новых непрочитанных сообщений. Сталинградская битва (1949) DVDRip от Русфильм

30 | 5

2.05 ГБ

В этой теме нет новых непрочитанных сообщений. Сталинградская битва (1949) DVDRip от New-Team

68 | 13

1.46 ГБ

В этой теме нет новых непрочитанных сообщений. Сталинградская битва (1949) DVDRip-AVC от New-Team

154 | 10

2.9 ГБ

В этой теме нет новых непрочитанных сообщений. Сталинградская битва [эфир от 02.02.2013] SATRip

6 | 1

1003.05 МБ

В этой теме нет новых непрочитанных сообщений. Чемпионат мира по ралли 2012 / World Rally Championship (WRC) 2012. 11/13. Франция. Обзор (2012) DVBRip

0 | 4

7.41 ГБ

В этой теме нет новых непрочитанных сообщений. Чемпионат мира по ралли 2012 / World Rally Championship (WRC) 2012. 12/13. Италия. Обзор (2012) DVBRip, HDTVRip 720р

0 | 1

4.27 ГБ




Вы не можете начинать темы
Вы не можете отвечать на сообщения
Вы не можете редактировать свои сообщения
Вы не можете удалять свои сообщения
Вы не можете добавлять вложения

Перейти:  
Для Мосгорсуда, Роскомнадзора и рекламодателей: mosgorsud-torrent[собачка]yandex.ru
 Вход
ppkBB3cker v.2 © 2008-2014 @ PPK
[ Time : 0.060s | 15 Queries | GZIP : Off ]

cron