img image001 image001 image001 image001 image001 image001 image001 image001 image001 image001 image001 image001 image001 image001 image001

Planets Sun Sun Sun
Статистика раздачи
Автор: Снежана | Размер: 1.17 ГБ | Добавлен: 26 июл 2013
Раздают: 10    Качают: 2
Скачать торрент
Скачать торрент
Описание торрента

СообщениеДобавлено: 26 июл 2013 

#77
Страна: Россия, Франция
Жанр: документальный, семейный
Год выпуска: 2012
Продолжительность: 01:00:01

Перевод: не требуется
Оригинальная аудиодорожка: русский
Cубтитры: нет

Режиссер: Виктор Крамер

В ролях: Слава Полунин, Роберт Саралпов

Описание:Волшебная сказка, рассказанная знаменитым русским клоуном Славой Полуниным, теперь на большом экране в объемном 3D-формате.
Для кого-то это шоу покажется лирическим воспоминанием о детстве, для кого-то станет пронзительным рассказом об одиночестве. Кто-то будет от души смеяться над желтым клоуном в лохматых красных тапочках и повторять вслед за ним: «Асисяй…» А у кого-то будут наворачиваться слезы от щемящей трепетности маленького человека в бездонной синеве вселенной… И любовь, словно паутина, окутает каждого в зале и заставит радоваться до слёз, не даст забыть, ещё долго будет будоражить странными чудесными воспоминаниями.






Исходник: DVD9 R5
Тип релиза: DVDRip
Контейнер: AVI

Видео: 720x400 (16:9), 25 fps, XviD ~ 2400 kbps avg, 0.333 bit/pixel
Аудио: 48 kHz, AC3 , 6 ch, 384.00 kbps

Раздача от:
Общее
Полное имя : Snezhnoe.shou.3D.2012.O.DVDRip_[Youtracker]_by_avproh.avi
Формат : AVI
Формат/Информация : Audio Video Interleave
Размер файла : 1,17 Гбайт
Продолжительность : 1 ч. 0 м.
Общий поток : 2793 Кбит/сек
Программа кодирования : VirtualDubMod 1.5.10.3 (build 2550/release)
Библиотека кодирования : VirtualDubMod build 2550/release

Видео
Идентификатор : 0
Формат : MPEG-4 Visual
Профиль формата : Advanced Simple@L5
Параметр BVOP формата : 1
Параметр QPel формата : Нет
Параметр GMC формата : Без точки перехода
Параметр матрицы формата : Выборочная
Идентификатор кодека : XVID
Идентификатор кодека/Подсказка : XviD
Продолжительность : 1 ч. 0 м.
Битрейт : 2400 Кбит/сек
Ширина : 720 пикселей
Высота : 400 пикселей
Соотношение сторон : 16:9
Частота кадров : 25,000 кадров/сек
Цветовое пространство : YUV
Субдискретизация насыщенности : 4:2:0
Битовая глубина : 8 бит
Тип развёртки : Прогрессивная
Метод сжатия : С потерями
Бит/(Пиксели*Кадры) : 0.333
Размер потока : 1,01 Гбайт (86%)
Библиотека кодирования : XviD 65

Аудио
Идентификатор : 1
Формат : AC-3
Формат/Информация : Audio Coding 3
Расширение режима : CM (complete main)
Параметр Endianness формата : Big
Идентификатор кодека : 2000
Продолжительность : 1 ч. 0 м.
Вид битрейта : Постоянный
Битрейт : 384 Кбит/сек
Каналы : 6 каналов
Расположение каналов : Front: L C R, Side: L R, LFE
Частота : 48,0 КГц
Битовая глубина : 16 бит
Метод сжатия : С потерями
Размер потока : 165 Мбайт (14%)
Выравнивание : Разделение по промежуткам
Продолжительность промежутка : 40 мс. (1,00 видеокадр)
Время предзагрузки промежутка : 500 мс.





   Похожие торренты   Торрент   Размер 
В этой теме нет новых непрочитанных сообщений. сНежное шоу 3D [2D+3D] (2012) DVD9+DVD5 R5 от Youtracker | 3D-video | Лицензия

32 | 4

9.91 ГБ

В этой теме нет новых непрочитанных сообщений. 700 кг. Золота - Снежное лето (2012) MP3

8 | 0

149.97 МБ

В этой теме нет новых непрочитанных сообщений. сНежное шоу Славы Полунина / Snow Show (2012) BDRip

215 | 9

1.06 ГБ

В этой теме нет новых непрочитанных сообщений. Снежное чувство Смиллы / Smilla's Sense of Snow (1997) DVDRip-AVC

117 | 54

2.06 ГБ

В этой теме нет новых непрочитанных сообщений. Снежное чувство Смиллы / Smilla's Sense of Snow (1997) DVDRip | P,P1

114 | 13

2.18 ГБ

В этой теме нет новых непрочитанных сообщений. Снежное царство / Frozen Kingdom (2011) PC

15 | 1

62.21 МБ

В этой теме нет новых непрочитанных сообщений. Сборник - Снежное время. Новинки 50/50 (2015) MP3

614 | 63

671.39 МБ




Вы не можете начинать темы
Вы не можете отвечать на сообщения
Вы не можете редактировать свои сообщения
Вы не можете удалять свои сообщения
Вы не можете добавлять вложения

Перейти:  
Для Мосгорсуда, Роскомнадзора и рекламодателей: mosgorsud-torrent[собачка]yandex.ru
 Вход
ppkBB3cker v.2 © 2008-2014 @ PPK
[ Time : 0.048s | 15 Queries | GZIP : Off ]

cron