img image001 image001 image001 image001 image001 image001 image001 image001 image001 image001 image001 image001 image001 image001 image001

Planets Sun Sun Sun
Статистика раздачи
Автор: Снежана | Размер: 1.44 ГБ | Добавлен: 27 июл 2013
Раздают: 2    Качают: 6
Скачать торрент
Скачать торрент
Описание торрента

СообщениеДобавлено: 27 июл 2013 

#77

Информация о фильме
Название: Горький вкус свободы
Оригинальное название: A Bitter Taste of Freedom
Год выхода: 2011
Жанр: Документальный
Режиссер: Марина Голдовская
В ролях: Анна Политковская, Илья Политковский, Вера Политковская, Раиса Мазепа, Елена Кудимова, Михаил Горбачев, Каринна Москаленко, Дмитрий Муратов, Елена Барановская, Александр Политковский, Александр Мнацеканян, Хеда Саратова, Светлана Ганушкина, Игорь Сикорский, Алексей Венедиктов, Дмитрий Быков, Евгения Альбац, Елена Морозова, Мария Гнедых, Алла Боссарат, Сергей Соколов

О фильме:
Своим бесстрашным стремлением приоткрыть завесу над преступлениями правительства России Анна Политковская в кого-то вселяла чувство уважения, а в кого-то — страх. Обозреватель, занимавшаяся журналистскими расследованиями для «Новой газеты», оплота московских либералов, часто становилась единственным представителем интересов жертв российского правительства. 7 октября 2006-го года она была убита просто за то, что выполняла свою работу.

Доп. информация: Фильм "Горький вкус свободы" Марина Голдовская начинала снимать двадцать лет назад, задумывая его как историю семьи Политковских (прежде всего Александра, который был ее студентом) на фоне истории страны. Но постепенно она сконцентрировалась на Анне Политковской. Картина получила множество фестивальных наград, выдвигалась на "Оскара", а в России была показана в рамках фестиваля документального кино "Артдокфест".

Media Info:
Общее
Полное имя : C:UsersAmberDesktopГорький вкус свободы (2011) [DVB].mpg
Формат : MPEG-PS
Размер файла : 1,44 Гбайт
Продолжительность : 1 ч. 26 м.
Режим общего битрейта : Переменный
Общий поток : 2394 Кбит/сек

Видео
Идентификатор : 224 (0xE0)
Формат : MPEG Video
Версия формата : Version 2
Профиль формата : Main@Main
Параметр BVOP формата : Да
Параметр матрицы формата : Выборочная
Параметр GOP формата : Variable
Продолжительность : 1 ч. 26 м.
Вид битрейта : Переменный
Битрейт : 2155 Кбит/сек
Максимальный битрейт : 15,0 Мбит/сек
Ширина : 720 пикселей
Высота : 576 пикселей
Соотношение сторон : 4:3
Частота кадров : 25,000 кадров/сек
Стандарт вещания : PAL
Цветовое пространство : YUV
Субдискретизация насыщенности : 4:2:0
Битовая глубина : 8 бит
Тип развёртки : Чересстрочная
Порядок развёртки : Верхнее поле первое
Метод сжатия : С потерями
Бит/(Пиксели*Кадры) : 0.208
Размер потока : 1,30 Гбайт (90%)

Аудио
Идентификатор : 192 (0xC0)
Формат : MPEG Audio
Версия формата : Version 1
Профиль формата : Layer 2
Продолжительность : 1 ч. 26 м.
Вид битрейта : Постоянный
Битрейт : 192 Кбит/сек
Каналы : 2 канала
Частота : 48,0 КГц
Метод сжатия : С потерями
Задержка видео : 8 мс.
Размер потока : 118 Мбайт (8%)

Официальный сайт

Страна: США, Швеция
Продолжительность: 01:26:05
Перевод: Не требуется

Файл
Кодек: MPEG-2
Качество: DVB
Видео: MPEG-2, 720x576@768x576 (4/3), 25 fps, ~2155 Mbps (0.208 bit/pixel)
Звук: MPEG Audio Layer 2, 48.0 KHz, 2 ch, 192 Kbps, CBR
Субтитры: нет

Семпл




   Похожие торренты   Торрент   Размер 
В этой теме нет новых непрочитанных сообщений. Горький пир / Bitter Feast (2010) DVDRip

11 | 3

1.41 ГБ

В этой теме нет новых непрочитанных сообщений. Писатели свободы / Певцы свободы / Freedom Writers (2007) BDRip-AVC от MediaClub | P2

131 | 6

2.86 ГБ

В этой теме нет новых непрочитанных сообщений. Горький пир / Bitter Feast (2010) BDRemux 1080p от NovaLan

10 | 2

18.17 ГБ

В этой теме нет новых непрочитанных сообщений. Горький чай генерала Йена / The Bitter Tea of General Yen (1933) DVDRip от egoleshik | A

7 | 3

1.33 ГБ

В этой теме нет новых непрочитанных сообщений. Вкус денег / The Taste of Money / Don-eui Mat (2012) HDTVRip | L2

10 | 19

1.49 ГБ

В этой теме нет новых непрочитанных сообщений. Вкус денег / The Taste of Money / Do-nui mat (2012) HDTVRip | L1

17 | 4

1.49 ГБ

В этой теме нет новых непрочитанных сообщений. Вкус азарта / Taste of Excitement (1970) DVDRip | SATKUR

83 | 15

1.49 ГБ




Вы не можете начинать темы
Вы не можете отвечать на сообщения
Вы не можете редактировать свои сообщения
Вы не можете удалять свои сообщения
Вы не можете добавлять вложения

Перейти:  
Для Мосгорсуда, Роскомнадзора и рекламодателей: mosgorsud-torrent[собачка]yandex.ru
 Вход
ppkBB3cker v.2 © 2008-2014 @ PPK
[ Time : 0.137s | 14 Queries | GZIP : Off ]

Торрент трекер RUTOR.IN, Не можете зайти на rutor.org? Какой новый адрес рутор? Какое зеркало рутор? Не работает rutor.org и зеркала? Тогда наш торрент специально для вас. Rutor.in неофициальное зеркало rutor. В случае если у Вас заблокирован rutor или вдруг Вы не можете на него зайти, то Вы без труда сможете скачать бесплатно и без рекламы последние новинки кино, игр, сериалов и прочего у нас, на Rutor.in. Не нужно использовать прокси, чтобы зайти на рутор, достаточно воспользоваться нашим ресурсом. Все новые фильмы, игры, сериалы, книги и музыка за 2013 и 2014 годы через торрент бесплатно. Скачивайте фильмы в хорошем качестве, игры для пк, xbox, playstation без регистрации. У нас вы найдете новые Зарубежные сериалы и Русские сериалы 2013, 2014, 2015 годов. Оставайтесь с нами, качайте любимые фильмы, игры, сериалы, книги и музыку.