img image001 image001 image001 image001 image001 image001 image001 image001 image001 image001 image001 image001 image001 image001 image001

Planets Sun Sun Sun
Статистика раздачи
Автор: Снежана | Размер: 922.44 МБ | Добавлен: 26 июл 2013
Раздают: 1    Качают: 2
Скачать торрент
Скачать торрент
Описание торрента

СообщениеДобавлено: 26 июл 2013 

#77

Я гей и что такого?
Je suis homo, et alors? / Je suis gay... et alors?


Год выпуска: 2007
Страна: Франция
Жанр: документальный, гей-тема
Продолжительность: 00:45:29
Перевод: Профессиональный (двухголосый) (ООО "ТПО Ред Медиа")
Русские субтитры: нет

Режиссер: Тед Энспач / Ted Anspach

Описание: Политкорректный фильм французских документалистов рассказывает о гомосексуализме. На протяжении многих веков религия, медицина, а также политика пытались всеми способами подавить гомосексуальные влечения, представляя их нам как болезнь...

О себе расскажут: Skander – гомосексуалист арабского происхождения, с детства чувствовавший себя не таким, как все, и испытавший сильное давление семьи; Моника и Изабель, после многих лет гетеросексуальной жизни решившиеся на открытие своей настоящей ориентации.

Авторы фильма напомнят об истреблении гомосексуалистов при нацизме и событиях 1960-х годов, когда во Франции пытались "лечить" гомосексуальность с помощью лоботомии.

Доп. информация: запись со спутника (канал "ТВ Бульвар", входил в пакет НТВ+).

Качество: DVB
Формат: TS
Видео кодек: MPEG2
Аудио кодек: MP2
Видео: MPEG Video 2, 704x576@768x576 (4:3), 25 fps, ~2502 kbps avg
Аудио: 48 kHz, MPEG Audio 2, 2 ch, ~192.00 kbps avg
Полное имя : H:My Torrents[apreder]Je_suis_homo_et_alors(2007)DVB.ts
Формат : MPEG-TS
Размер файла : 922 Мбайт
Продолжительность : 45 м.
Режим общего битрейта : Переменный
Общий поток : 2836 Кбит/сек

Видео
Идентификатор : 224 (0xE0)
Идентификатор меню : 258 (0x102)
Формат : MPEG Video
Версия формата : Version 2
Профиль формата : Main@Main
Параметр BVOP формата : Да
Параметр матрицы формата : Выборочная
Идентификатор кодека : 2
Продолжительность : 45 м.
Вид битрейта : Переменный
Битрейт : 2502 Кбит/сек
Максимальный битрейт : 15,0 Мбит/сек
Ширина : 704 пикселя
Высота : 576 пикселей
Соотношение сторон : 4:3
Частота кадров : 25,000 кадров/сек
Стандарт вещания : PAL
Цветовое пространство : YUV
Субдискретизация насыщенности : 4:2:0
Битовая глубина : 8 бит
Метод сжатия : С потерями
Бит/(Пиксели*Кадры) : 0.247
Размер потока : 814 Мбайт (88%)

Аудио
Идентификатор : 192 (0xC0)
Идентификатор меню : 258 (0x102)
Формат : MPEG Audio
Версия формата : Version 1
Профиль формата : Layer 2
Идентификатор кодека : 3
Продолжительность : 45 м.
Вид битрейта : Постоянный
Битрейт : 192 Кбит/сек
Каналы : 2 канала
Частота : 48,0 КГц
Метод сжатия : С потерями
Задержка видео : -594 мс.
Размер потока : 62,5 Мбайт (7%)
Язык : German
Язык, дополнительно : Clean effects






   Похожие торренты   Торрент   Размер 
В этой теме нет новых непрочитанных сообщений. Я гей и что такого? / Je suis homo, et alors? (2007) SATRip

0 | 2

502.9 МБ

В этой теме нет новых непрочитанных сообщений. Stromae - Alors on danse (2010) HDTVRip, MP3

6 | 2

237.67 МБ

В этой теме нет новых непрочитанных сообщений. Не худо бы похудеть / Mince alors! (2012) BDRip 720p от CINEMANIA | P, L1

95 | 11

4.63 ГБ

В этой теме нет новых непрочитанных сообщений. Не худо бы похудеть / Mince alors! (2012) BDRip 1080p от CINEMANIA | P, L1

19 | 2

7.93 ГБ

В этой теме нет новых непрочитанных сообщений. Черт возьми! / Особа крупных размеров / Mince alors! (2012) HDRip | L1

56 | 2

1.46 ГБ

В этой теме нет новых непрочитанных сообщений. Черт возьми! / Особа крупных размеров / Mince alors! (2012) DVDRip | L1

76 | 2

1.46 ГБ

В этой теме нет новых непрочитанных сообщений. Я не сволочь / Je ne suis pas un salaud (2015) WEBRip | Sub

0 | 2

1.46 ГБ




Вы не можете начинать темы
Вы не можете отвечать на сообщения
Вы не можете редактировать свои сообщения
Вы не можете удалять свои сообщения
Вы не можете добавлять вложения

Перейти:  
Для Мосгорсуда, Роскомнадзора и рекламодателей: mosgorsud-torrent[собачка]yandex.ru
 Вход
ppkBB3cker v.2 © 2008-2014 @ PPK
[ Time : 0.040s | 15 Queries | GZIP : Off ]

cron