img image001 image001 image001 image001 image001 image001 image001 image001 image001 image001 image001 image001 image001 image001 image001

Planets Sun Sun Sun
Статистика раздачи
Автор: Снежана | Размер: 64.01 МБ | Добавлен: 27 июл 2013
Раздают: 1    Качают: 3
Скачать торрент
Скачать торрент
Описание торрента

СообщениеДобавлено: 27 июл 2013 

#77

Информация о фильме
Название: Новогоднее поздравление Президента Республики Беларусь Лукашенко А.Г. (2012) DVBRip
Год выхода: 2012
Производство: Белтелерадиокомпания
Страна: Беларусь
Продолжительность программы: 00:06:42
Перевод: Не требуется

Описание: Новогоднее обращение Президента Республики Беларусь Александра Лукашенко к белорусскому народу.

Файл
Кодек: XviD
Качество: DVBRip
Видео: 640x480, 25 к/с, 4:3, 1200 кбит/с
Звук: MP3, 128 кбит/с, 48 кгц, стерео

Format : AVI
Format/Info : Audio Video Interleave
File size : 64.0 MiB
Duration : 6mn 42s
Overall bit rate : 1 333 Kbps
Writing application : VirtualDubMod 1.5.10.2 (build 2540/release)
Writing library : VirtualDubMod build 2540/release

Video
ID : 0
Format : MPEG-4 Visual
Format profile : Advanced Simple@L5
Format settings, BVOP : 2
Format settings, QPel : Yes
Format settings, GMC : No warppoints
Format settings, Matrix : Default (MPEG)
Muxing mode : Packed bitstream
Codec ID : XVID
Codec ID/Hint : XviD
Duration : 6mn 42s
Bit rate : 1 195 Kbps
Width : 640 pixels
Height : 480 pixels
Display aspect ratio : 4:3
Frame rate : 25.000 fps
Color space : YUV
Chroma subsampling : 4:2:0
Bit depth : 8 bits
Scan type : Progressive
Compression mode : Lossy
Bits/(Pixel*Frame) : 0.156
Stream size : 57.4 MiB (90%)
Writing library : XviD 1.2.1 (UTC 2008-12-04)

Audio
ID : 1
Format : MPEG Audio
Format version : Version 1
Format profile : Layer 3
Mode : Joint stereo
Mode extension : MS Stereo
Codec ID : 55
Codec ID/Hint : MP3
Duration : 6mn 42s
Bit rate mode : Constant
Bit rate : 128 Kbps
Channel(s) : 2 channels
Sampling rate : 48.0 KHz
Compression mode : Lossy
Stream size : 6.14 MiB (10%)
Alignment : Aligned on interleaves
Interleave, duration : 40 ms (1.00 video frame)
Interleave, preload duration : 504 ms




   Похожие торренты   Торрент   Размер 
В этой теме нет новых непрочитанных сообщений. Новогоднее поздравление Президента Республики Беларусь Лукашенко А.Г. (2013) DVBRip

0 | 2

108.32 МБ

В этой теме нет новых непрочитанных сообщений. Новогоднее обращение Президента Республики Беларусь А. Г. Лукашенко (2011) DVBRip

2 | 2

40.9 МБ

В этой теме нет новых непрочитанных сообщений. Встреча Президента Республики Беларусь A.Г. Лукашенко с руководителями крупнейших белорусских СМИ (2014) DVBRip

0 | 2

498.84 МБ

В этой теме нет новых непрочитанных сообщений. Александр Лукашенко: Интервью Президента Республики Беларусь программе Шустер LIVE (2014) DVBRip

384 | 96

684.84 МБ

В этой теме нет новых непрочитанных сообщений. Лукашенко А. Г. - Послание Президента Республики Беларусь белорусскому народу и Национальному Собранию (2013) DVBRip

0 | 1

1.35 ГБ

В этой теме нет новых непрочитанных сообщений. Новогоднее поздравление Президента РФ Владимира Путина (2013) DVB

7 | 2

79.65 МБ

В этой теме нет новых непрочитанных сообщений. Новогоднее обращение президента А. Г. Лукашенко (2011) SATRip

2 | 1

71.91 МБ




Вы не можете начинать темы
Вы не можете отвечать на сообщения
Вы не можете редактировать свои сообщения
Вы не можете удалять свои сообщения
Вы не можете добавлять вложения

Перейти:  
Для Мосгорсуда, Роскомнадзора и рекламодателей: mosgorsud-torrent[собачка]yandex.ru
 Вход
ppkBB3cker v.2 © 2008-2014 @ PPK
[ Time : 0.308s | 14 Queries | GZIP : Off ]

Торрент трекер RUTOR.IN, Не можете зайти на rutor.org? Какой новый адрес рутор? Какое зеркало рутор? Не работает rutor.org и зеркала? Тогда наш торрент специально для вас. Rutor.in неофициальное зеркало rutor. В случае если у Вас заблокирован rutor или вдруг Вы не можете на него зайти, то Вы без труда сможете скачать бесплатно и без рекламы последние новинки кино, игр, сериалов и прочего у нас, на Rutor.in. Не нужно использовать прокси, чтобы зайти на рутор, достаточно воспользоваться нашим ресурсом. Все новые фильмы, игры, сериалы, книги и музыка за 2013 и 2014 годы через торрент бесплатно. Скачивайте фильмы в хорошем качестве, игры для пк, xbox, playstation без регистрации. У нас вы найдете новые Зарубежные сериалы и Русские сериалы 2013, 2014, 2015 годов. Оставайтесь с нами, качайте любимые фильмы, игры, сериалы, книги и музыку.