img image001 image001 image001 image001 image001 image001 image001 image001 image001 image001 image001 image001 image001 image001 image001

Planets Sun Sun Sun
Статистика раздачи
Автор: Снежана | Размер: 2.67 ГБ | Добавлен: 27 июл 2013
Раздают: 2    Качают: 2
Скачать торрент
Скачать торрент
Описание торрента

СообщениеДобавлено: 27 июл 2013 

#77

Информация о фильме
Название: Охотники за трюками
Оригинальное название: StuntBusters
Год выхода: 2011
Жанр: Документальный
Режиссер: StuntBusters
В ролях: Garrett Hammond,Vanessa Vander Pluym

О фильме:
В прямом смысле слова взрывная программа об автомобилях. Парочка ведущих Гаррет Хаммонд и Ванесса Вандер Плюим не верят сухим цифрам, они готовы все проверить опытным путем. Их цель – узнать правду, на что способны современные автомобильные технологии. В их распоряжении лаборатория оборудованная по последнему слову техники, которая позволяет ставить самые смелые опыты.
Каждый взрывоопасный эксперимент будет разложен по полочкам, а замедленная съемка поможет досконально изучить физику процесса.

01 - Ripping Off the Roof
02 - Bulletproof Beater
03 - Ultimate Flip
04 - Smash Derby
05 - Car Hit Meltdown
06 - Wall of Fire
07 - Drift & Escape
08 - Guided Missiles

Общее
Полное имя : C:UsersAmberDesktopStuntBusters - Охотники за трюками - 2011�1x01 - Ripping Off the Roof.avi
Формат : AVI
Формат/Информация : Audio Video Interleave
Размер файла : 342 Мбайт
Продолжительность : 22 м.
Общий поток : 2137 Кбит/сек
Программа кодирования : VirtualDubMod 1.5.10.2 (build 2540/release)
Библиотека кодирования : VirtualDubMod build 2540/release

Видео
Идентификатор : 0
Формат : MPEG-4 Visual
Параметр BVOP формата : 1
Параметр QPel формата : Нет
Параметр GMC формата : Без точки перехода
Параметр матрицы формата : Default (H.263)
Режим смешивания : Сжатый битовый поток
Идентификатор кодека : DX50
Идентификатор кодека/Подсказка : DivX 5
Продолжительность : 22 м.
Битрейт : 2000 Кбит/сек
Ширина : 704 пикселя
Высота : 432 пикселя
Соотношение сторон : 1,630
Частота кадров : 25,000 кадров/сек
Цветовое пространство : YUV
Субдискретизация насыщенности : 4:2:0
Битовая глубина : 8 бит
Тип развёртки : Прогрессивная
Метод сжатия : С потерями
Бит/(Пиксели*Кадры) : 0.263
Размер потока : 320 Мбайт (94%)
Библиотека кодирования : DivX 3330

Аудио
Идентификатор : 1
Формат : MPEG Audio
Версия формата : Version 1
Профиль формата : Layer 3
Идентификатор кодека : 55
Идентификатор кодека/Подсказка : MP3
Продолжительность : 22 м.
Вид битрейта : Постоянный
Битрейт : 128 Кбит/сек
Каналы : 2 канала
Частота : 48,0 КГц
Метод сжатия : С потерями
Размер потока : 20,5 Мбайт (6%)
Выравнивание : Соединение по промежуткам
Продолжительность промежутка : 40 мс. (1,00 видеокадр)
Время предзагрузки промежутка : 504 мс.
Библиотека кодирования : LAME3.99r
Настройки программы : -m s -V 4 -q 0 -lowpass 17 -b 128

Общее
Полное имя : C:UsersAmberDesktopStuntBusters - Охотники за трюками - 2011�1x02 - Bulletproof Beater.avi
Формат : AVI
Формат/Информация : Audio Video Interleave
Размер файла : 341 Мбайт
Продолжительность : 22 м.
Общий поток : 2135 Кбит/сек
Программа кодирования : VirtualDubMod 1.5.10.2 (build 2540/release)
Библиотека кодирования : VirtualDubMod build 2540/release

Видео
Идентификатор : 0
Формат : MPEG-4 Visual
Параметр BVOP формата : 1
Параметр QPel формата : Нет
Параметр GMC формата : Без точки перехода
Параметр матрицы формата : Default (H.263)
Режим смешивания : Сжатый битовый поток
Идентификатор кодека : DX50
Идентификатор кодека/Подсказка : DivX 5
Продолжительность : 22 м.
Битрейт : 2000 Кбит/сек
Ширина : 704 пикселя
Высота : 432 пикселя
Соотношение сторон : 1,630
Частота кадров : 20,000 кадров/сек
Цветовое пространство : YUV
Субдискретизация насыщенности : 4:2:0
Битовая глубина : 8 бит
Тип развёртки : Прогрессивная
Метод сжатия : С потерями
Бит/(Пиксели*Кадры) : 0.329
Размер потока : 319 Мбайт (94%)
Библиотека кодирования : DivX 3330

Аудио
Идентификатор : 1
Формат : MPEG Audio
Версия формата : Version 1
Профиль формата : Layer 3
Идентификатор кодека : 55
Идентификатор кодека/Подсказка : MP3
Продолжительность : 22 м.
Вид битрейта : Постоянный
Битрейт : 128 Кбит/сек
Каналы : 2 канала
Частота : 48,0 КГц
Метод сжатия : С потерями
Размер потока : 20,4 Мбайт (6%)
Выравнивание : Соединение по промежуткам
Продолжительность промежутка : 50 мс. (1,00 видеокадр)
Время предзагрузки промежутка : 504 мс.
Библиотека кодирования : LAME3.99r
Настройки программы : -m s -V 4 -q 0 -lowpass 17 -b 128

Общее
Полное имя : C:UsersAmberDesktopStuntBusters - Охотники за трюками - 2011�1x03 - Ultimate Flip.avi
Формат : AVI
Формат/Информация : Audio Video Interleave
Размер файла : 342 Мбайт
Продолжительность : 22 м.
Общий поток : 2139 Кбит/сек
Программа кодирования : VirtualDubMod 1.5.10.2 (build 2540/release)
Библиотека кодирования : VirtualDubMod build 2540/release

Видео
Идентификатор : 0
Формат : MPEG-4 Visual
Параметр BVOP формата : 1
Параметр QPel формата : Нет
Параметр GMC формата : Без точки перехода
Параметр матрицы формата : Default (H.263)
Режим смешивания : Сжатый битовый поток
Идентификатор кодека : DX50
Идентификатор кодека/Подсказка : DivX 5
Продолжительность : 22 м.
Битрейт : 2001 Кбит/сек
Ширина : 704 пикселя
Высота : 432 пикселя
Соотношение сторон : 1,630
Частота кадров : 25,000 кадров/сек
Цветовое пространство : YUV
Субдискретизация насыщенности : 4:2:0
Битовая глубина : 8 бит
Тип развёртки : Прогрессивная
Метод сжатия : С потерями
Бит/(Пиксели*Кадры) : 0.263
Размер потока : 320 Мбайт (94%)
Библиотека кодирования : DivX 3330

Аудио
Идентификатор : 1
Формат : MPEG Audio
Версия формата : Version 1
Профиль формата : Layer 3
Идентификатор кодека : 55
Идентификатор кодека/Подсказка : MP3
Продолжительность : 22 м.
Вид битрейта : Постоянный
Битрейт : 128 Кбит/сек
Каналы : 2 канала
Частота : 48,0 КГц
Метод сжатия : С потерями
Размер потока : 20,4 Мбайт (6%)
Выравнивание : Соединение по промежуткам
Продолжительность промежутка : 40 мс. (1,00 видеокадр)
Время предзагрузки промежутка : 504 мс.
Библиотека кодирования : LAME3.99r
Настройки программы : -m s -V 4 -q 0 -lowpass 17 -b 128

Общее
Полное имя : C:UsersAmberDesktopStuntBusters - Охотники за трюками - 2011�1x04 - Smash Derby.avi
Формат : AVI
Формат/Информация : Audio Video Interleave
Размер файла : 341 Мбайт
Продолжительность : 22 м.
Общий поток : 2136 Кбит/сек
Программа кодирования : VirtualDubMod 1.5.10.2 (build 2540/release)
Библиотека кодирования : VirtualDubMod build 2540/release

Видео
Идентификатор : 0
Формат : MPEG-4 Visual
Параметр BVOP формата : 1
Параметр QPel формата : Нет
Параметр GMC формата : Без точки перехода
Параметр матрицы формата : Default (H.263)
Режим смешивания : Сжатый битовый поток
Идентификатор кодека : DX50
Идентификатор кодека/Подсказка : DivX 5
Продолжительность : 22 м.
Битрейт : 2000 Кбит/сек
Ширина : 704 пикселя
Высота : 432 пикселя
Соотношение сторон : 1,630
Частота кадров : 20,000 кадров/сек
Цветовое пространство : YUV
Субдискретизация насыщенности : 4:2:0
Битовая глубина : 8 бит
Тип развёртки : Прогрессивная
Метод сжатия : С потерями
Бит/(Пиксели*Кадры) : 0.329
Размер потока : 320 Мбайт (94%)
Библиотека кодирования : DivX 3330

Аудио
Идентификатор : 1
Формат : MPEG Audio
Версия формата : Version 1
Профиль формата : Layer 3
Идентификатор кодека : 55
Идентификатор кодека/Подсказка : MP3
Продолжительность : 22 м.
Вид битрейта : Постоянный
Битрейт : 128 Кбит/сек
Каналы : 2 канала
Частота : 48,0 КГц
Метод сжатия : С потерями
Размер потока : 20,4 Мбайт (6%)
Выравнивание : Соединение по промежуткам
Продолжительность промежутка : 50 мс. (1,00 видеокадр)
Время предзагрузки промежутка : 504 мс.
Библиотека кодирования : LAME3.99r
Настройки программы : -m s -V 4 -q 0 -lowpass 17 -b 128

Общее
Полное имя : C:UsersAmberDesktopStuntBusters - Охотники за трюками - 2011�1x05 - Car Hit Meltdown.avi
Формат : AVI
Формат/Информация : Audio Video Interleave
Размер файла : 342 Мбайт
Продолжительность : 22 м.
Общий поток : 2138 Кбит/сек
Программа кодирования : VirtualDubMod 1.5.10.2 (build 2540/release)
Библиотека кодирования : VirtualDubMod build 2540/release

Видео
Идентификатор : 0
Формат : MPEG-4 Visual
Параметр BVOP формата : 1
Параметр QPel формата : Нет
Параметр GMC формата : Без точки перехода
Параметр матрицы формата : Default (H.263)
Режим смешивания : Сжатый битовый поток
Идентификатор кодека : DX50
Идентификатор кодека/Подсказка : DivX 5
Продолжительность : 22 м.
Битрейт : 2000 Кбит/сек
Ширина : 704 пикселя
Высота : 432 пикселя
Соотношение сторон : 1,630
Частота кадров : 25,000 кадров/сек
Цветовое пространство : YUV
Субдискретизация насыщенности : 4:2:0
Битовая глубина : 8 бит
Тип развёртки : Прогрессивная
Метод сжатия : С потерями
Бит/(Пиксели*Кадры) : 0.263
Размер потока : 320 Мбайт (94%)
Библиотека кодирования : DivX 3330

Аудио
Идентификатор : 1
Формат : MPEG Audio
Версия формата : Version 1
Профиль формата : Layer 3
Идентификатор кодека : 55
Идентификатор кодека/Подсказка : MP3
Продолжительность : 22 м.
Вид битрейта : Постоянный
Битрейт : 128 Кбит/сек
Каналы : 2 канала
Частота : 48,0 КГц
Метод сжатия : С потерями
Размер потока : 20,5 Мбайт (6%)
Выравнивание : Соединение по промежуткам
Продолжительность промежутка : 40 мс. (1,00 видеокадр)
Время предзагрузки промежутка : 504 мс.
Библиотека кодирования : LAME3.99r
Настройки программы : -m s -V 4 -q 0 -lowpass 17 -b 128

Общее
Полное имя : C:UsersAmberDesktopStuntBusters - Охотники за трюками - 2011�1x06 - Wall of Fire.avi
Формат : AVI
Формат/Информация : Audio Video Interleave
Размер файла : 342 Мбайт
Продолжительность : 22 м.
Общий поток : 2138 Кбит/сек
Программа кодирования : VirtualDubMod 1.5.10.2 (build 2540/release)
Библиотека кодирования : VirtualDubMod build 2540/release

Видео
Идентификатор : 0
Формат : MPEG-4 Visual
Параметр BVOP формата : 1
Параметр QPel формата : Нет
Параметр GMC формата : Без точки перехода
Параметр матрицы формата : Default (H.263)
Режим смешивания : Сжатый битовый поток
Идентификатор кодека : DX50
Идентификатор кодека/Подсказка : DivX 5
Продолжительность : 22 м.
Битрейт : 2000 Кбит/сек
Ширина : 720 пикселей
Высота : 416 пикселей
Соотношение сторон : 1,731
Частота кадров : 25,000 кадров/сек
Цветовое пространство : YUV
Субдискретизация насыщенности : 4:2:0
Битовая глубина : 8 бит
Тип развёртки : Прогрессивная
Метод сжатия : С потерями
Бит/(Пиксели*Кадры) : 0.267
Размер потока : 320 Мбайт (94%)
Библиотека кодирования : DivX 3330

Аудио
Идентификатор : 1
Формат : MPEG Audio
Версия формата : Version 1
Профиль формата : Layer 3
Идентификатор кодека : 55
Идентификатор кодека/Подсказка : MP3
Продолжительность : 22 м.
Вид битрейта : Постоянный
Битрейт : 128 Кбит/сек
Каналы : 2 канала
Частота : 48,0 КГц
Метод сжатия : С потерями
Размер потока : 20,5 Мбайт (6%)
Выравнивание : Соединение по промежуткам
Продолжительность промежутка : 40 мс. (1,00 видеокадр)
Время предзагрузки промежутка : 504 мс.
Библиотека кодирования : LAME3.99r
Настройки программы : -m s -V 4 -q 0 -lowpass 17 -b 128

Общее
Полное имя : C:UsersAmberDesktopStuntBusters - Охотники за трюками - 2011�1x07 - Drift & Escape.avi
Формат : AVI
Формат/Информация : Audio Video Interleave
Размер файла : 342 Мбайт
Продолжительность : 22 м.
Общий поток : 2139 Кбит/сек
Программа кодирования : VirtualDubMod 1.5.10.2 (build 2540/release)
Библиотека кодирования : VirtualDubMod build 2540/release

Видео
Идентификатор : 0
Формат : MPEG-4 Visual
Параметр BVOP формата : 1
Параметр QPel формата : Нет
Параметр GMC формата : Без точки перехода
Параметр матрицы формата : Default (H.263)
Режим смешивания : Сжатый битовый поток
Идентификатор кодека : DX50
Идентификатор кодека/Подсказка : DivX 5
Продолжительность : 22 м.
Битрейт : 2001 Кбит/сек
Ширина : 720 пикселей
Высота : 416 пикселей
Соотношение сторон : 1,731
Частота кадров : 25,000 кадров/сек
Цветовое пространство : YUV
Субдискретизация насыщенности : 4:2:0
Битовая глубина : 8 бит
Тип развёртки : Прогрессивная
Метод сжатия : С потерями
Бит/(Пиксели*Кадры) : 0.267
Размер потока : 320 Мбайт (94%)
Библиотека кодирования : DivX 3330

Аудио
Идентификатор : 1
Формат : MPEG Audio
Версия формата : Version 1
Профиль формата : Layer 3
Идентификатор кодека : 55
Идентификатор кодека/Подсказка : MP3
Продолжительность : 22 м.
Вид битрейта : Постоянный
Битрейт : 128 Кбит/сек
Каналы : 2 канала
Частота : 48,0 КГц
Метод сжатия : С потерями
Размер потока : 20,5 Мбайт (6%)
Выравнивание : Соединение по промежуткам
Продолжительность промежутка : 40 мс. (1,00 видеокадр)
Время предзагрузки промежутка : 504 мс.
Библиотека кодирования : LAME3.99r
Настройки программы : -m s -V 4 -q 0 -lowpass 17 -b 128

Общее
Полное имя : C:UsersAmberDesktopStuntBusters - Охотники за трюками - 2011�1x08 - Guided Missiles.avi
Формат : AVI
Формат/Информация : Audio Video Interleave
Размер файла : 342 Мбайт
Продолжительность : 22 м.
Общий поток : 2140 Кбит/сек
Программа кодирования : VirtualDubMod 1.5.10.2 (build 2540/release)
Библиотека кодирования : VirtualDubMod build 2540/release

Видео
Идентификатор : 0
Формат : MPEG-4 Visual
Параметр BVOP формата : 1
Параметр QPel формата : Нет
Параметр GMC формата : Без точки перехода
Параметр матрицы формата : Default (H.263)
Режим смешивания : Сжатый битовый поток
Идентификатор кодека : DX50
Идентификатор кодека/Подсказка : DivX 5
Продолжительность : 22 м.
Битрейт : 2002 Кбит/сек
Ширина : 720 пикселей
Высота : 416 пикселей
Соотношение сторон : 1,731
Частота кадров : 25,000 кадров/сек
Цветовое пространство : YUV
Субдискретизация насыщенности : 4:2:0
Битовая глубина : 8 бит
Тип развёртки : Прогрессивная
Метод сжатия : С потерями
Бит/(Пиксели*Кадры) : 0.267
Размер потока : 320 Мбайт (94%)
Библиотека кодирования : DivX 3330

Аудио
Идентификатор : 1
Формат : MPEG Audio
Версия формата : Version 1
Профиль формата : Layer 3
Идентификатор кодека : 55
Идентификатор кодека/Подсказка : MP3
Продолжительность : 22 м.
Вид битрейта : Постоянный
Битрейт : 128 Кбит/сек
Каналы : 2 канала
Частота : 48,0 КГц
Метод сжатия : С потерями
Размер потока : 20,5 Мбайт (6%)
Выравнивание : Соединение по промежуткам
Продолжительность промежутка : 40 мс. (1,00 видеокадр)
Время предзагрузки промежутка : 504 мс.
Библиотека кодирования : LAME3.99r
Настройки программы : -m s -V 4 -q 0 -lowpass 17 -b 128

Официальный сайт

Страна: США
Продолжительность: 00:22:20
Перевод: Профессиональный (двухголосый)

Файл
Кодек: DivX
Качество: SATRip
Видео: Видео 1-5: DivX 5, 704x432 (1.630), 2000 Kbps, 25 fps.Видео 6-8: DivX 5, 720x416 (1.731), 2000 Kbps, 25 fps
Звук: MP3, 128 Kbps, 48 KHz, Stereo
Субтитры: нет

Семпл




   Похожие торренты   Торрент   Размер 
В этой теме нет новых непрочитанных сообщений. Cлишком милые / Too Cute [01-05 из ?] (2011) TVRip Sauliux

1 | 2

3.29 ГБ

В этой теме нет новых непрочитанных сообщений. Горький вкус свободы / A Bitter Taste of Freedom (2011) DVB Sauliux

2 | 6

1.44 ГБ

В этой теме нет новых непрочитанных сообщений. Охотники за бриллиантами [01-08 из 08] (2011) SATRip | КПК

99 | 20

1.86 ГБ

В этой теме нет новых непрочитанных сообщений. Охотники за складами / Discovery Channel: Storage Hunters [01-40] (2011-2013) SATRip от HitWay | P1

21 | 35

9.76 ГБ

В этой теме нет новых непрочитанных сообщений. Охотники за складами / Discovery Channel: Storage Hunters [01-26] (2011-2013) SATRip от HitWay | P1

34 | 37

6.28 ГБ

В этой теме нет новых непрочитанных сообщений. Охотники за складами / Discovery Channel: Storage Hunters [01-44] (2011-2013) SATRip от HitWay | P1

70 | 84

10.75 ГБ

В этой теме нет новых непрочитанных сообщений. Охотники за складами / Discovery Channel: Storage Hunters [01-34] (2011-2013) SATRip от HitWay | P1

22 | 19

8.27 ГБ




Вы не можете начинать темы
Вы не можете отвечать на сообщения
Вы не можете редактировать свои сообщения
Вы не можете удалять свои сообщения
Вы не можете добавлять вложения

Перейти:  
Для Мосгорсуда, Роскомнадзора и рекламодателей: mosgorsud-torrent[собачка]yandex.ru
 Вход
ppkBB3cker v.2 © 2008-2014 @ PPK
[ Time : 0.044s | 15 Queries | GZIP : Off ]

Торрент трекер RUTOR.IN, Не можете зайти на rutor.org? Какой новый адрес рутор? Какое зеркало рутор? Не работает rutor.org и зеркала? Тогда наш торрент специально для вас. Rutor.in неофициальное зеркало rutor. В случае если у Вас заблокирован rutor или вдруг Вы не можете на него зайти, то Вы без труда сможете скачать бесплатно и без рекламы последние новинки кино, игр, сериалов и прочего у нас, на Rutor.in. Не нужно использовать прокси, чтобы зайти на рутор, достаточно воспользоваться нашим ресурсом. Все новые фильмы, игры, сериалы, книги и музыка за 2013 и 2014 годы через торрент бесплатно. Скачивайте фильмы в хорошем качестве, игры для пк, xbox, playstation без регистрации. У нас вы найдете новые Зарубежные сериалы и Русские сериалы 2013, 2014, 2015 годов. Оставайтесь с нами, качайте любимые фильмы, игры, сериалы, книги и музыку.
cron