img image001 image001 image001 image001 image001 image001 image001 image001 image001 image001 image001 image001 image001 image001 image001

Planets Sun Sun Sun
Статистика раздачи
Автор: Снежана | Размер: 4.65 ГБ | Добавлен: 27 июл 2013
Раздают: 202    Качают: 2
Скачать торрент
Скачать торрент
Описание торрента

СообщениеДобавлено: 27 июл 2013 

#77

Информация о фильме
Название: Пётр Чайковский - Щелкунчик (Мариинский театр)
Оригинальное название: Tchaikovsky: The Nutcracker
Год выхода: 2012
Жанр: Классический балет
Режиссер: Валерий Гергиев, Мариус Петипа, Василий Вайнонен, Andreas Morell
В ролях: Mariinsky Ballet & Orchestra, Валерий Гергиев, Алина Сомова, Владимир Шкляров, Александра Коршунова, Фёдор Лопухов, Владимир Пономарев, Александра Гронская, Алёна Машинцева, Павел Михеев, Лира Хусламова, Станислав Буров, Валерия Карпина, Константин Ивкин

О фильме:
В декабре 2012 года балет Петра Ильича Чайковского "Щелкунчик" отметил свой 120-летний юбилей. Детская сказка, волшебство Нового года, так мы привыкли видеть и воспринимать «Щелкунчика» как балет-праздник. Но за яркостью музыкальных форм, пышностью сценического оформления и красотой исполнительского искусства таится глубокий философский замысел. Несколько основных тем творчества Гофмана составляют основу идейного содержания и балета по его произведению. Это иллюзорность грани между явью и сном, живыми существами и неживыми предметами и игрушками, оппозиция мира взрослых и мира детей, борьба благородства и мелочного зла, сокрытая за маской чудачества мудрость (в образе Дроссельмейера), всепобеждающая любовь и главнейшая тема — поиски человеком своей истинной природы. Щелкунчик занимает особое место среди поздних произведении П. И. Чайковского; стоит обособленно от традиции балетного жанра, новаторски применены музыкальные образы. Он является для композитора точкой отсчета в поисках смысла жизни, именно в нем слышны раздумия на тему вечного. Марии́нский теа́тр (с 1934 по 1992 год - Ленинградский государственный академический театр оперы и балета имени С. М. Кирова) - один из крупнейших в России театров оперы и балета.

Выпущено: EuroArts | Warner Classics
Композитор: Петр Ильич Чайковский
Студия: Warner Classics, Мариинский театр (Санкт-Петербург)
Продолжительность: 01:43:29
Перевод: Не требуется

Файл
Кодек: MPEG-4 AVC
Качество: BDRip
Видео: 5230 Кбит/с, 1280х720, 29.970 кадр/с
Звук:
Аудио 1: AC3, 5.1 ch, 448 kbps, 48 kHz
Аудио 2: DTS, 6 ch, 768 kbps, 48 kHz, 24 bits
Субтитры: Отсутствуют

Сохранены оригинальные чаптеры Blu-Ray
Общее
Уникальный идентификатор : 234349462090553919809253646124483419682 (0xB04E108CD850EDCEA068F19870E11E22)
Полное имя : Tchaikovsky_The.Nutcracker_Mariinsky.Theatre_Gergiev.2012.BDRip.720p.mkv
Формат : Matroska
Версия формата : Version 4 / Version 2
Размер файла : 4,65 Гбайт
Продолжительность : 1 ч. 43 м.
Общий поток : 6434 Кбит/сек
Дата кодирования : UTC 2013-01-12 08:52:09
Программа кодирования : mkvmerge v5.9.0 ('On The Loose') built on Dec 31 2012 17:36:59
Библиотека кодирования : libebml v1.3.0 + libmatroska v1.4.0

Видео
Идентификатор : 1
Формат : AVC
Формат/Информация : Advanced Video Codec
Профиль формата : High@L3.1
Параметр CABAC формата : Да
Параметр ReFrames формата : 4 кадра
Режим смешивания : Container profile=Unknown@0.0
Идентификатор кодека : V_MPEG4/ISO/AVC
Продолжительность : 1 ч. 43 м.
Битрейт : 5230 Кбит/сек
Ширина : 1280 пикселей
Высота : 720 пикселей
Соотношение сторон : 16:9
Частота кадров : 29,970 кадров/сек
Цветовое пространство : YUV
Субдискретизация насыщенности : 4:2:0
Битовая глубина : 8 бит
Тип развёртки : Прогрессивная
Бит/(Пиксели*Кадры) : 0.189
Размер потока : 3,69 Гбайт (79%)
Заголовок : drony
Библиотека кодирования : x264 core 129 r2230 1cffe9f

Аудио #1
Идентификатор : 2
Формат : AC-3
Формат/Информация : Audio Coding 3
Расширение режима : CM (complete main)
Параметр Endianness формата : Big
Идентификатор кодека : A_AC3
Продолжительность : 1 ч. 43 м.
Вид битрейта : Постоянный
Битрейт : 448 Кбит/сек
Каналы : 6 каналов
Расположение каналов : Front: L C R, Side: L R, LFE
Частота : 48,0 КГц
Битовая глубина : 16 бит
Метод сжатия : С потерями
Размер потока : 332 Мбайт (7%)
Заголовок : AC3, 5.1 ch, 448 kbps, 48 kHz
Язык : English
Default : Да
Forced : Нет

Аудио #2
Идентификатор : 3
Формат : DTS
Формат/Информация : Digital Theater Systems
Идентификатор кодека : A_DTS
Продолжительность : 1 ч. 43 м.
Вид битрейта : Постоянный
Битрейт : 755 Кбит/сек
Каналы : 6 каналов
Расположение каналов : Front: L C R, Side: L R, LFE
Частота : 48,0 КГц
Битовая глубина : 24 бит
Метод сжатия : С потерями
Размер потока : 559 Мбайт (12%)
Заголовок : DTS, 6 ch, 755 kbps, 48 kHz, 24 bits
Язык : English
Default : Нет
Forced : Нет

Меню
00:00:00.000 : en:-= INTRO =-
00:00:30.000 : en:Miniature Overture
00:03:52.032 : en:Decorating the Christmas Tree
00:06:55.215 : en:Lighting the Christmas Tree
00:07:58.511 : en:MARCH
00:10:33.099 : en:Children's Galop and Dance of the Parents
00:13:16.996 : en:Arrival of Drosselmeyer - Dance Scene, part 1
00:16:12.305 : en:Arrival of Drosselmeyer - Dance Scene, part 2
00:19:11.450 : en:The Nutcracker and Grandfather Dance
00:29:37.709 : en:Clara and the Nutcracker & The Battle
00:39:47.986 : en:A Pine Forest in Winter
00:44:30.001 : en:Waltz of the Snowflakes
00:52:06.991 : en:The Magic Castle on the Mountain of Sweets
00:56:00.958 : en:Clara and Nutcracker Prince
01:00:47.043 : en:Div.1, Chocolate [Spanish Dance]
01:02:20.003 : en:Div.2, Coffee [Arabian Dance]
01:07:05.955 : en:Div.3, Tea [Chinese Dance]
01:08:33.977 : en:Div.4, Trepak [Russian Dance]
01:09:57.994 : en:Div.5, Polichinelles
01:13:36.512 : en:Waltz of the Flowers
01:21:03.225 : en:Pas de Deux
01:27:50.499 : en:Intrada, Variation I: Prince Orgeat [Tarantella]
01:29:01.937 : en:Intrada, Variation II: Dance of the Sugar Plum Fairy
01:31:29.084 : en:Sugar Plum Fairy and Prince Orgeat - CODA
01:33:26.468 : en:Final Waltz and Apotheosis
01:37:09.957 : en:OUTRO (with Applauses)
01:38:16.810 : en:Curtain Calls and Applauses
01:41:57.020 : en:-= credits =-




Релиз от: drony2010



   Похожие торренты   Торрент   Размер 
В этой теме нет новых непрочитанных сообщений. Чайковский П.И. - Балет "Щелкунчик" / Tchaikovsky: The Nutcracker (2007) DVDRip от ExKinoRay

51 | 7

1.39 ГБ

В этой теме нет новых непрочитанных сообщений. Балет. Пётр Чайковский - Щелкунчик (2012) BDRip 720p

53 | 5

5.84 ГБ

В этой теме нет новых непрочитанных сообщений. Чайковский Пётр - Лебединое Озеро / Tchaikovsky - Swan Lake (2010) Blu-Ray Remux от Tabogen

1 | 2

20.08 ГБ

В этой теме нет новых непрочитанных сообщений. Петр Чайковский - Пиковая дама / Pyotr Tchaikovsky - The Queen of Spades (1992) DVDRip от Занавес

46 | 3

2.73 ГБ

В этой теме нет новых непрочитанных сообщений. Пётр Чайковский - Лебединое озеро / Pyotr Tchaikovsky - Swan Lake ( 2005) DVDRip от Занавес

36 | 11

1.44 ГБ

В этой теме нет новых непрочитанных сообщений. Чайковский П.И. - Лебединое озеро / Tchaikovsky: Swan Lake (2012) BDRip 720p

39 | 9

4.35 ГБ

В этой теме нет новых непрочитанных сообщений. Чайковский П.И. - Лебединое озеро / Tchaikovsky: Swan Lake (2012) BDRip-AVC

92 | 3

2.18 ГБ




Вы не можете начинать темы
Вы не можете отвечать на сообщения
Вы не можете редактировать свои сообщения
Вы не можете удалять свои сообщения
Вы не можете добавлять вложения

Перейти:  
Для Мосгорсуда, Роскомнадзора и рекламодателей: mosgorsud-torrent[собачка]yandex.ru
 Вход
ppkBB3cker v.2 © 2008-2014 @ PPK
[ Time : 0.025s | 14 Queries | GZIP : Off ]

Торрент трекер RUTOR.IN, Не можете зайти на rutor.org? Какой новый адрес рутор? Какое зеркало рутор? Не работает rutor.org и зеркала? Тогда наш торрент специально для вас. Rutor.in неофициальное зеркало rutor. В случае если у Вас заблокирован rutor или вдруг Вы не можете на него зайти, то Вы без труда сможете скачать бесплатно и без рекламы последние новинки кино, игр, сериалов и прочего у нас, на Rutor.in. Не нужно использовать прокси, чтобы зайти на рутор, достаточно воспользоваться нашим ресурсом. Все новые фильмы, игры, сериалы, книги и музыка за 2013 и 2014 годы через торрент бесплатно. Скачивайте фильмы в хорошем качестве, игры для пк, xbox, playstation без регистрации. У нас вы найдете новые Зарубежные сериалы и Русские сериалы 2013, 2014, 2015 годов. Оставайтесь с нами, качайте любимые фильмы, игры, сериалы, книги и музыку.