img image001 image001 image001 image001 image001 image001 image001 image001 image001 image001 image001 image001 image001 image001 image001

Planets Sun Sun Sun
Статистика раздачи
Автор: Снежана | Размер: 602.88 МБ | Добавлен: 26 июл 2013
Раздают: 12    Качают: 2
Скачать торрент
Скачать торрент
Описание торрента

СообщениеДобавлено: 26 июл 2013 

#77

Игра в поддавки

Год выпуска: 2013
Страна: Россия
Жанр: аналитический
Продолжительность: 01:17:21
Перевод: Не требуется
Русские субтитры: нет

Описание: Фильм "Игра в поддавки" о медведевском предательстве интересов России во время событий в Ливии, в котором роль главного эксперта - отведена Евгению Примакову.
Содержалась ли в действиях Медведева накануне и во время натовской агрессии против Каддафи государственная измена или нет, сказать сложно, но вот многомиллиардный ущерб от сорванных Медведевым военных и гражданских контрактов отрицать теперь, после фильма, невозможно.
Ну и особая тема - новый передел мира, при котором Россия постепенно загоняется Западом в список стран "оси Зла". В фильме проведены параллели между Ливией и Россией, от реальности не скроешься: мы - следующие после Ирана . Сценариев масса: от поддержки "демократического движения" на вспыхнувшем Северном Кавказе - до войны за неподеленные ресурсы Арктики.

качество: WEBRip
формат: AVI
Видео: 640x368 (1.74:1), 25 fps, XviD MPEG-4 ~951 kbps avg, 0.16 bit/pixel
Аудио: 44.100 kHz, MPEG Layer 3, 2 ch, ~128.00 kbps avg
Формат : AVI
Формат/Информация : Audio Video Interleave
Размер файла : 603 Мбайт
Продолжительность : 1 ч. 17 м.
Общий поток : 1090 Кбит/сек
Программа кодирования : TMPGEnc Video Mastering Works 5 Version. 5.0.6.38
Библиотека кодирования : TMPGEnc Video Mastering Works 5 Version. 5.0.6.38

Видео
Идентификатор : 0
Формат : MPEG-4 Visual
Профиль формата : Advanced Simple@L5
Параметр BVOP формата : 2
Параметр QPel формата : Нет
Параметр GMC формата : Без точки перехода
Параметр матрицы формата : Default (MPEG)
Режим смешивания : Сжатый битовый поток
Идентификатор кодека : XVID
Идентификатор кодека/Подсказка : XviD
Продолжительность : 1 ч. 17 м.
Битрейт : 949 Кбит/сек
Ширина : 640 пикселей
Высота : 368 пикселей
Соотношение сторон : 1,739
Частота кадров : 25,000 кадров/сек
Цветовое пространство : YUV
Субдискретизация насыщенности : 4:2:0
Битовая глубина : 8 бит
Тип развёртки : Прогрессивная
Метод сжатия : С потерями
Бит/(Пиксели*Кадры) : 0.161
Размер потока : 525 Мбайт (87%)
Библиотека кодирования : XviD 64

Аудио
Идентификатор : 1
Формат : MPEG Audio
Версия формата : Version 1
Профиль формата : Layer 3
Режим : Joint stereo
Расширение режима : MS Stereo
Идентификатор кодека : 55
Идентификатор кодека/Подсказка : MP3
Продолжительность : 1 ч. 17 м.
Вид битрейта : Постоянный
Битрейт : 128 Кбит/сек
Каналы : 2 канала
Частота : 44,1 КГц
Метод сжатия : С потерями
Размер потока : 70,8 Мбайт (12%)
Выравнивание : Соединение по промежуткам
Продолжительность промежутка : 40 мс. (1,00 видеокадр)
Время предзагрузки промежутка : 391 мс.




   Похожие торренты   Торрент   Размер 
В этой теме нет новых непрочитанных сообщений. Игра / O'YIN (2005) WEBRip

40 | 7

1.76 ГБ

В этой теме нет новых непрочитанных сообщений. Игра [20 из 20] (2011) WEBRip

286 | 79

8.7 ГБ

В этой теме нет новых непрочитанных сообщений. Игра [01-20 из 20] (2011) WEBRip-AVC от New-Team

109 | 18

12.25 ГБ

В этой теме нет новых непрочитанных сообщений. Игра [01-20 из 20] (2011) WEBRip-AVC от New-Team

35 | 8

12.32 ГБ

В этой теме нет новых непрочитанных сообщений. Игра [01-20 из 20] (2011) WEBRip-AVC от New-Team

191 | 52

12.32 ГБ

В этой теме нет новых непрочитанных сообщений. Игра на вылет [01-16 из 16] (2015) WEBRip от Files-x

80 | 33

9.14 ГБ

В этой теме нет новых непрочитанных сообщений. Игра на вылет [01-02 из 16] (2015) WEBRip от Files-x

15 | 7

1.07 ГБ




Вы не можете начинать темы
Вы не можете отвечать на сообщения
Вы не можете редактировать свои сообщения
Вы не можете удалять свои сообщения
Вы не можете добавлять вложения

Перейти:  
Для Мосгорсуда, Роскомнадзора и рекламодателей: mosgorsud-torrent[собачка]yandex.ru
 Вход
ppkBB3cker v.2 © 2008-2014 @ PPK
[ Time : 0.039s | 15 Queries | GZIP : Off ]

cron