img image001 image001 image001 image001 image001 image001 image001 image001 image001 image001 image001 image001 image001 image001 image001 image001

Planets Sun Sun Sun
Статистика раздачи
Автор: Снежана | Размер: 613.86 МБ | Добавлен: 26 июл 2013
Раздают: 0    Качают: 2
Скачать торрент
Скачать торрент
Описание торрента

СообщениеДобавлено: 26 июл 2013 

#77
Человек и закон (01.02.2013)
Год выпуска: 2013
Страна: Россия
Жанр: Документальный
Ведущий: Алексей Пиманов
Продолжительность: 00:50:26
Перевод: Не требуется
Описание: Общественно-политическая программа "Человек и закон" выходит на главном телеканале страны уже 35 лет (Алексей Пиманов ведет программу с 1996 года). Столь "преклонный возраст" ничуть не мешает программе оставаться одной из самых востребованных и актуальных на отечественном телевидении. Быть может потому, что основные темы - борьба с организованной преступностью, расследования о коррупции в высших эшелонах власти, криминальные истории…
Качество: SATRip
Формат: AVI
Видео кодек: DivX
Аудио кодек: MP3
Видео: 704x400 (1.76:1), 25 fps, DivX Codec 6.8.5/6.9.1 ~1499 kbps avg
Аудио: 48 kHz, MPEG Layer 3, 2 ch, ~192.00 kbps avg
Новые подробности в "Деле "Оборонсервиса". Комментарий официального представителя МВД и неизвестные факты по поводу "Ракетного дела" (хищение бюджетных средств, выделенных РВСН на ремонт и рекультивацию шахт). А также таинственная смерть человека, который имел прямое отношение к "Делу "Оборонсервиса" и мог бы стать одним из основных свидетелей (был подрядчиком строительства некоторых объектов для Минобороны) и загадочное ДТП (26-го января под Пермью), в котором погиб человек, который был посредником между Минобороны и подрядными организациями, занимавшимися продажей непрофильных активов Минобороны.

Крейсер "Аврора". Несколько дней назад стало известно, что в судьбе легендарного корабля, который в 2010-м году был выведен из состава ВМФ, снят с довольствия и до недавнего времени оставался просто музейным экспонатом, грядут кардинальные перемены. Он снова займет подобающее ему место и вернет потерянный статус.

На прошлой неделе предполагаемому убийце пятилетнего Богдана Прахова — Сергею Козлову - предъявили обвинение. Подозреваемый сознался в преступлении и рассказал, как все произошло. Следователям Следственного комитета пришлось проделать огромную работу: проведено свыше 10 тысяч генетических исследований биологических образцов, опрошено больше двухсот человек. Напомним, все произошло минувшим летом в деревне Грибово Владимирской области. Мужчина похитил мальчика, когда тот со своим другом катался на велосипеде. Преступник затащил ребенка в лес, где несколько раз ударил его головой о дерево. Тело мальчика нашли сутки спустя неподалеку от места преступления. Специальное расследование.

Москва. Лефортово. Жители многоквартирного дома (здание является памятником истории и охраняется законом) безуспешно пытаются бороться с ушлым соседом – бывшим главой муниципального образования, который подмял под себя несколько квартир и устроил там нелегальную гостинцу и ресторан. Как только съемочная группа стала разбираться в ситуации, сразу же посыпались угрозы: только вас тут не хватало, не хотите проблем на свою голову, убирайтесь по-хорошему.

Астрахань. Алиментщик поневоле. Люди встречаются, люди влюбляются, женятся. Потом появляются дети. Так было и в жизни нашего героя. Но совместная жизнь у пары не сложилась. И долгое время наш герой, как и полагается, платил на воспитание своего сына алименты. А потом появились сомнения. Тест на ДНК показал, что ребенок не его. А суд решил – ДНК, не ДНК – плати.

Топ интернет роликов.

Общее
Полное имя : D:РаздачиChelovek.i.Zakon.01.02.2013.SATRip.avi
Формат : AVI
Формат/Информация : Audio Video Interleave
Размер файла : 614 Мбайт
Продолжительность : 50 м.
Общий поток : 1701 Кбит/сек
Программа кодирования : VirtualDubModRus 1.5.10.1 (build 2439/release)
Библиотека кодирования : VirtualDubMod build 2439/release

Видео
Идентификатор : 0
Формат : MPEG-4 Visual
Параметр BVOP формата : 1
Параметр QPel формата : Нет
Параметр GMC формата : Без точки перехода
Параметр матрицы формата : Default (H.263)
Режим смешивания : Сжатый битовый поток
Идентификатор кодека : DX50
Идентификатор кодека/Подсказка : DivX 5
Продолжительность : 50 м.
Битрейт : 1500 Кбит/сек
Ширина : 704 пикселя
Высота : 400 пикселей
Соотношение сторон : 16:9
Частота кадров : 25,000 кадров/сек
Цветовое пространство : YUV
Субдискретизация насыщенности : 4:2:0
Битовая глубина : 8 бит
Тип развёртки : Прогрессивная
Метод сжатия : С потерями
Бит/(Пиксели*Кадры) : 0.213
Размер потока : 541 Мбайт (88%)
Библиотека кодирования : DivX 6.8.5 (UTC 2009-08-20)

Аудио
Идентификатор : 1
Формат : MPEG Audio
Версия формата : Version 1
Профиль формата : Layer 3
Идентификатор кодека : 50
Продолжительность : 50 м.
Вид битрейта : Постоянный
Битрейт : 192 Кбит/сек
Каналы : 2 канала
Частота : 48,0 КГц
Метод сжатия : С потерями
Размер потока : 69,3 Мбайт (11%)
Выравнивание : Соединение по промежуткам
Продолжительность промежутка : 40 мс. (1,00 видеокадр)
Время предзагрузки промежутка : 504 мс.




   Похожие торренты   Торрент   Размер 
В этой теме нет новых непрочитанных сообщений. Человек и закон [эфир от 17.01] (2014) SATRip

0 | 4

660.88 МБ

В этой теме нет новых непрочитанных сообщений. Человек и закон [эфир 13.03] (2015) SATRip

35 | 8

646.69 МБ

В этой теме нет новых непрочитанных сообщений. Человек и закон [эфир 26.09] (2014) SATRip

103 | 7

758.39 МБ

В этой теме нет новых непрочитанных сообщений. Человек и закон [эфир 10.10] (2014) SATRip

32 | 7

754.97 МБ

В этой теме нет новых непрочитанных сообщений. Человек и закон [эфир от 18.11] (2016) SATRip

3 | 0

732.72 МБ

В этой теме нет новых непрочитанных сообщений. Человек и закон [эфир 13.02] (2015) SATRip

28 | 13

717.76 МБ

В этой теме нет новых непрочитанных сообщений. Человек и закон [эфир от 04.04] (2014) SATRip

138 | 19

600 МБ




Вы не можете начинать темы
Вы не можете отвечать на сообщения
Вы не можете редактировать свои сообщения
Вы не можете удалять свои сообщения
Вы не можете добавлять вложения

Перейти:  
 Вход
ppkBB3cker v.2 © 2008-2014 @ PPK
[ Time : 0.035s | 17 Queries | GZIP : Off ]

cron