img image001 image001 image001 image001 image001 image001 image001 image001 image001 image001 image001 image001 image001 image001 image001

Planets Sun Sun Sun
Статистика раздачи
Автор: Снежана | Размер: 7.91 ГБ | Добавлен: 26 июл 2013
Раздают: 8    Качают: 4
Скачать торрент
Скачать торрент
Описание торрента

СообщениеДобавлено: 26 июл 2013 

#77


Информация о фильме
Название: Пётр Ильич Чайковский: Спящая красавица
Оригинальное название: Tchaikovsky: Sleeping Beauty
Автор: Пётр Ильич Чайковский
Королевский театр Ковент-Гарден / (англ. Theatre Royal, Covent Garden)
Постановка: Мариус Петипа
Дирижер: Валерий Овсянников
Год выхода: 2006
Жанр: Балет, спектакль
Язык: Английский
Перевод: Не требуется



Алина Кожокару (Принцесса Аврора), Федерико Бонелли (Принц Флоримунд), Кристофер Сондерс (король Флорестан XXIV ), Элизабет МакГориан (Королева), Алистер Мариотт (церемониймейстер), Марианела Нуньес (Фея Сирени) , Королевский балет, оркестр Лондонской Королевской Оперы.


ПЕРВЫЙ АКТ

В замке короля Флорестана крестины принцессы Авроры. Приглашены важные гости, чтобы пожелать счастья маленькой принцессе. Король спрашивает у Каталабюта - церемониймейстера, всем ли разосланы приглашения. Тот показывает королю список гостей и уверяет, что все на месте. Добрые феи дарят ребенку подарки и танцуют. В замке царит веселье. Внезапно торжественная музыка превращается в страшную и жуткую. Что происходит ? Церемониймейстер спешит сообщить королю, что забыл пригласить на крестины злую Фею Карабосс. В это время Карабосс со своей свитой яростно врывается во дворец. От злости она начинает колдовать и предвещает принцессе, что та умрет от укола спицей в 16 лет. Добрые феи выгоняют Карабосс из замка и стараются успокоить королевскую чету и гостей. Король приказывает уничтожить все спицы, находящиеся в королевстве. После этого тот, у кого найдут хоть одну спицу, будет приговорен к смертной казни.

16 лет спустя …

Четыре женщины вяжут на спицах. Их замечает церемониймейстер. Он отбирает у женщин спицы и приводит их к королю. Король приговаривает их к смерти. Королева в ужасе и просит помиловать женщин ведь сегодня день рождения принцессы Авроры. Король дарует им свободу в честь праздника, который начинается в счастливой обстановке.

Приезжают четыре принца, чтобы посвататься к Авроре. Аврора танцует с каждым из них. Праздник в самом разгаре. Вдруг в зале появляется старая женщина, которая дарит принцессе букет цветов. Коварный план Карабосс удался. Среди цветов спрятана спица, которой Аврора колет себе палец и падает замертво. Карабосс, ехидно смеясь, убегает. Принцы пускаются в погоню. Во дворце все оплакивают смерть принцессы. Фея Сирени спешит сообщить королю, что в ее силах поменять смертельное колдовство Карабосс на столетний сон.

ВТОРОЙ АКТ
100 лет спустя…

Королевский замок еле виден среди густых ветвей. Принц со своей свитой охотится за птицами . Он выходит на опушку и видит фею Сирени. Фея погружает принца в сон, в котором он видит прекрасную принцессу Аврору. Принц танцует с Авророй и пламенно в нее влюбляется. Однако, в сон врывается злая фея Карабосс, которая похищает принцессу, увозя ее в свой замок. Принц просыпается и видит в лесу очертания замка. Саблей он расчищает дорогу к замку. Там он находит Аврору, о которой мечтал. Он целует спящую принцессу, которая сразу просыпается после столетнего сна. Колдовство повержено. Все придворные просыпаются.

Начинается торжество Авроры и принца. Помимо придворных на празднике присутствуют сказочные существа и звери. Все ликуют и радуются счастью Принцессы и принца


Официальный сайт

Страна: США
Продолжительность: 02:12:27

Файл
Кодек: H.264
Качество: BDRip 720p
Видео: 1280x720, 29.970 fps, 8549 kbps
Аудио #1: English DTS, 6 ch, 48 kHz, 1536 kbps
Аудио #2: English AC3, 6 ch, 48 kHz, 640 kbps

Скриншоты:

Общее
Уникальный идентификатор : 174092067052857785120317210888923453610 (0x82F8E999B6BDAB8BB64DA23B69AB18AA)
Полное имя : Чайковский -Спящая красавица. Театр Ковент-Гарден (2006) 720p.mkv
Формат : Matroska
Версия формата : Version 4 / Version 2
Размер файла : 7,91 Гбайт
Продолжительность : 2 ч. 12 м.
Общий поток : 8549 Кбит/сек
Дата кодирования : UTC 2010-02-22 21:41:31
Программа кодирования : mkvmerge v5.9.0 ('On The Loose') built on Dec 9 2012 15:37:01
Библиотека кодирования : libebml v1.3.0 + libmatroska v1.4.0

Видео
Идентификатор : 1
Формат : AVC
Формат/Информация : Advanced Video Codec
Профиль формата : High@L4.1
Параметр CABAC формата : Да
Параметр ReFrames формата : 9 кадров
Режим смешивания : Header stripping
Идентификатор кодека : V_MPEG4/ISO/AVC
Продолжительность : 2 ч. 12 м.
Битрейт : 6400 Кбит/сек
Ширина : 1280 пикселей
Высота : 720 пикселей
Соотношение сторон : 16:9
Режим частоты кадров : Постоянный
Частота кадров : 29,970 кадров/сек
Цветовое пространство : YUV
Субдискретизация насыщенности : 4:2:0
Битовая глубина : 8 бит
Тип развёртки : Прогрессивная
Бит/(Пиксели*Кадры) : 0.232
Размер потока : 5,76 Гбайт (73%)
Заголовок : Чайковский - Спящая красавица (2006) Blu-ray 720p BDRip
Библиотека кодирования : x264 core 80 r1373M 4322f63
Настройки программы : cabac=1 / ref=9 / deblock=1:-1:-1 / analyse=0x3:0x113 / me=umh / subme=9 / psy=1 / psy_rd=1.0:0.0 / mixed_ref=1 / me_range=24 / chroma_me=1 / trellis=2 / 8x8dct=1 / cqm=0 / deadzone=21,11 / fast_pskip=1 / chroma_qp_offset=-2 / threads=6 / sliced_threads=0 / nr=0 / decimate=1 / mbaff=0 / constrained_intra=0 / bframes=3 / b_pyramid=0 / b_adapt=2 / b_bias=0 / direct=3 / wpredb=1 / wpredp=2 / keyint=250 / keyint_min=25 / scenecut=40 / rc_lookahead=40 / rc=2pass / mbtree=1 / bitrate=6400 / ratetol=1.0 / qcomp=0.60 / qpmin=10 / qpmax=51 / qpstep=4 / cplxblur=20.0 / qblur=0.5 / vbv_maxrate=50000 / vbv_bufsize=50000 / ip_ratio=1.40 / aq=1:1.00
Язык : English
Default : Нет
Forced : Нет

Аудио #1
Идентификатор : 2
Формат : DTS
Формат/Информация : Digital Theater Systems
Режим : 16
Параметр Endianness формата : Big
Режим смешивания : Header stripping
Идентификатор кодека : A_DTS
Продолжительность : 2 ч. 12 м.
Вид битрейта : Постоянный
Битрейт : 1510 Кбит/сек
Каналы : 6 каналов
Расположение каналов : Front: L C R, Side: L R, LFE
Частота : 48,0 КГц
Битовая глубина : 24 бит
Метод сжатия : С потерями
Размер потока : 1,40 Гбайт (18%)
Заголовок : DTS 5.1. 1536kbs
Язык : English
Default : Да
Forced : Нет

Аудио #2
Идентификатор : 3
Формат : AC-3
Формат/Информация : Audio Coding 3
Расширение режима : CM (complete main)
Параметр Endianness формата : Big
Режим смешивания : Header stripping
Идентификатор кодека : A_AC3
Продолжительность : 2 ч. 12 м.
Вид битрейта : Постоянный
Битрейт : 640 Кбит/сек
Каналы : 6 каналов
Расположение каналов : Front: L C R, Side: L R, LFE
Частота : 48,0 КГц
Битовая глубина : 16 бит
Метод сжатия : С потерями
Размер потока : 606 Мбайт (7%)
Заголовок : AC3 5.1. 640kbs
Язык : English
Default : Нет
Forced : Нет




   Похожие торренты   Торрент   Размер 
В этой теме нет новых непрочитанных сообщений. П.И. Чайковский: "Спящая красавица" / Tchaikovsky: Sleeping Beauty (2006) DVDRip от ExKinoRay

8 | 2

2.46 ГБ

В этой теме нет новых непрочитанных сообщений. Спящая красавица / Sleeping Beauty (1959) BDRip 720p

3 | 2

4.58 ГБ

В этой теме нет новых непрочитанных сообщений. Спящая красавица / Sleeping Beauty (2011) BDRip 720p

8 | 6

4.23 ГБ

В этой теме нет новых непрочитанных сообщений. Спящая красавица / Sleeping Beauty (2011) BDRip 720p | Лицензия

1 | 2

5.1 ГБ

В этой теме нет новых непрочитанных сообщений. Спящая красавица / Sleeping Beauty (1959) BDRip 720p от Leonardo and Scarabey

269 | 6

1.62 ГБ

В этой теме нет новых непрочитанных сообщений. Спящая красавица / Sleeping Beauty (2011) BDRip-AVC

30 | 3

2.04 ГБ

В этой теме нет новых непрочитанных сообщений. Спящая красавица / Sleeping Beauty (1959) BDRip

42 | 22

699.94 МБ




Вы не можете начинать темы
Вы не можете отвечать на сообщения
Вы не можете редактировать свои сообщения
Вы не можете удалять свои сообщения
Вы не можете добавлять вложения

Перейти:  
Для Мосгорсуда, Роскомнадзора и рекламодателей: mosgorsud-torrent[собачка]yandex.ru
 Вход
ppkBB3cker v.2 © 2008-2014 @ PPK
[ Time : 0.042s | 18 Queries | GZIP : Off ]

Торрент трекер RUTOR.IN, Не можете зайти на rutor.org? Какой новый адрес рутор? Какое зеркало рутор? Не работает rutor.org и зеркала? Тогда наш торрент специально для вас. Rutor.in неофициальное зеркало rutor. В случае если у Вас заблокирован rutor или вдруг Вы не можете на него зайти, то Вы без труда сможете скачать бесплатно и без рекламы последние новинки кино, игр, сериалов и прочего у нас, на Rutor.in. Не нужно использовать прокси, чтобы зайти на рутор, достаточно воспользоваться нашим ресурсом. Все новые фильмы, игры, сериалы, книги и музыка за 2013 и 2014 годы через торрент бесплатно. Скачивайте фильмы в хорошем качестве, игры для пк, xbox, playstation без регистрации. У нас вы найдете новые Зарубежные сериалы и Русские сериалы 2013, 2014, 2015 годов. Оставайтесь с нами, качайте любимые фильмы, игры, сериалы, книги и музыку.
cron