img image001 image001 image001 image001 image001 image001 image001 image001 image001 image001 image001 image001 image001 image001 image001

Planets Sun Sun Sun
Статистика раздачи
Автор: Снежана | Размер: 629.33 МБ | Добавлен: 26 июл 2013
Раздают: 0    Качают: 2
Скачать торрент
Скачать торрент
Описание торрента

СообщениеДобавлено: 26 июл 2013 

#77
Человек и закон (08.02.2013)
Год выпуска: 2013
Страна: Россия
Жанр: Документальный
Ведущий: Алексей Пиманов
Продолжительность: 00:51:43
Перевод: Не требуется
Описание: Общественно-политическая программа "Человек и закон" выходит на главном телеканале страны уже 35 лет (Алексей Пиманов ведет программу с 1996 года). Столь "преклонный возраст" ничуть не мешает программе оставаться одной из самых востребованных и актуальных на отечественном телевидении. Быть может потому, что основные темы - борьба с организованной преступностью, расследования о коррупции в высших эшелонах власти, криминальные истории…
Качество: SATRip
Формат: AVI
Видео кодек: DivX
Аудио кодек: MP3
Видео: 704x400 (1.76:1), 25 fps, DivX Codec 6.8.5/6.9.1 ~1499 kbps avg
Аудио: 48 kHz, MPEG Layer 3, 2 ch, ~192.00 kbps avg
Комплекс "Морской старт", преподносившийся раньше как идеальный образец космической кооперации ведущих индустриальных стран, похоже, оказался большим мыльным пузырем. Неудачный запуск в Тихом океане ракетоносителя "Зенит" с американским спутником на борту, который произошел неделю назад, лишь только подтвердил самые худшие опасения. И поставил жирную точку в надежде РКК "Энергия" возродить после банкротства знаменитый плавучий космодром на экваторе. В каких играх запутался РКК "Энергия"? Роскосмос пытается разобраться, куда ушли государственные бюджетные деньги. Программе удалось раздобыть сенсационные документы.

Астрахань. Алиментщик поневоле. Люди встречаются, люди влюбляются, женятся. Потом появляются дети. Так было и в биографии нашего героя. Но совместная жизнь не задалась. Долгое время он, как и водится, платил на сына алименты. А потом появились сомнения. Тест на ДНК подтвердил: ребенок не его. А суд решил – ДНК, не ДНК – плати.

Армянин из Тверской губернии на службе в Российской армии. Съемочная группа вернулась с присяги. Парень очень хотел служить, обивал порог военкомата, а его не брали – слишком был полным. Ему даже специально худеть пришлось.

Топ интернет роликов.

Магаданская область. Поселок Талая. Год назад мы рассказывали историю о том, как предприниматель Муравьева из п.Талая Магаданской области набросился на врача-гинеколога, которая принимал роды у его жены. Младенец умер. А предприниматель не только жестоко избил доктора, но и ее мужа, тот в итоге скончался. А спустя несколько дней после похорон был совершен поджог дома, где жила доктор со своей дочерью и ее внуками. Все погибли. Предприниматель был главным подозреваемым. Множество косвенных улик указывало на причастность к этому делу. Поселок гудел, все понимали, кто виноват, но пальцем показать боялись. Сейчас следствие завершилось, и магаданский суд вынес смехотворный приговор: 3 года заключения за причинение тяжких телесных повреждений. В суде Муравье вел себя по- хамски.

Цирковое закулисье. Программа начинает расследование самой массовой гибели животных в истории российского цирка. Артур и Карина Багдасаровы уже около двух месяцев обивают пороги специализированных ведомств, которые участвуют в следствии. За год у известных дрессировщиков умерло семь тигров, последнего - Урала - удалось спасти, но зверь полностью ослеп. Сегодня ясно главное - животных травили намеренно. При этом дело о гибели тигров может зайти в тупик - детектор лжи дал отрицательный результат после допроса всех подозреваемых.

Общее
Полное имя : D:РаздачиChelovek.i.Zakon.08.02.2013.SATRip.avi
Формат : AVI
Формат/Информация : Audio Video Interleave
Размер файла : 629 Мбайт
Продолжительность : 51 м.
Общий поток : 1701 Кбит/сек
Программа кодирования : VirtualDubModRus 1.5.10.1 (build 2439/release)
Библиотека кодирования : VirtualDubMod build 2439/release

Видео
Идентификатор : 0
Формат : MPEG-4 Visual
Параметр BVOP формата : 1
Параметр QPel формата : Нет
Параметр GMC формата : Без точки перехода
Параметр матрицы формата : Default (H.263)
Режим смешивания : Сжатый битовый поток
Идентификатор кодека : DX50
Идентификатор кодека/Подсказка : DivX 5
Продолжительность : 51 м.
Битрейт : 1499 Кбит/сек
Ширина : 704 пикселя
Высота : 400 пикселей
Соотношение сторон : 16:9
Частота кадров : 25,000 кадров/сек
Цветовое пространство : YUV
Субдискретизация насыщенности : 4:2:0
Битовая глубина : 8 бит
Тип развёртки : Прогрессивная
Метод сжатия : С потерями
Бит/(Пиксели*Кадры) : 0.213
Размер потока : 555 Мбайт (88%)
Библиотека кодирования : DivX 6.8.5 (UTC 2009-08-20)

Аудио
Идентификатор : 1
Формат : MPEG Audio
Версия формата : Version 1
Профиль формата : Layer 3
Идентификатор кодека : 50
Продолжительность : 51 м.
Вид битрейта : Постоянный
Битрейт : 192 Кбит/сек
Каналы : 2 канала
Частота : 48,0 КГц
Метод сжатия : С потерями
Размер потока : 71,0 Мбайт (11%)
Выравнивание : Соединение по промежуткам
Продолжительность промежутка : 40 мс. (1,00 видеокадр)
Время предзагрузки промежутка : 504 мс.




   Похожие торренты   Торрент   Размер 
В этой теме нет новых непрочитанных сообщений. Человек и закон [эфир от 01.02] (2012) SATRip

0 | 2

613.86 МБ

В этой теме нет новых непрочитанных сообщений. Человек и закон [эфир от 13.10] (2012) SATRip

0 | 2

620.69 МБ

В этой теме нет новых непрочитанных сообщений. Человек и закон [эфир от 20.10] (2012) SATRip

0 | 2

582.79 МБ

В этой теме нет новых непрочитанных сообщений. Человек и закон [эфир от 25.01] (2012) SATRip

0 | 4

634.65 МБ

В этой теме нет новых непрочитанных сообщений. Человек и закон [эфир от 11.01] (2012) SATRip

0 | 2

635.93 МБ

В этой теме нет новых непрочитанных сообщений. Человек и закон [эфир от 12.04] (2012) SATRip

0 | 4

620.13 МБ

В этой теме нет новых непрочитанных сообщений. Человек и закон [эфир от 10.11] (2012) SATRip

0 | 2

643.9 МБ




Вы не можете начинать темы
Вы не можете отвечать на сообщения
Вы не можете редактировать свои сообщения
Вы не можете удалять свои сообщения
Вы не можете добавлять вложения

Перейти:  
Для Мосгорсуда, Роскомнадзора и рекламодателей: mosgorsud-torrent[собачка]yandex.ru
 Вход
ppkBB3cker v.2 © 2008-2014 @ PPK
[ Time : 0.034s | 17 Queries | GZIP : Off ]

Торрент трекер RUTOR.IN, Не можете зайти на rutor.org? Какой новый адрес рутор? Какое зеркало рутор? Не работает rutor.org и зеркала? Тогда наш торрент специально для вас. Rutor.in неофициальное зеркало rutor. В случае если у Вас заблокирован rutor или вдруг Вы не можете на него зайти, то Вы без труда сможете скачать бесплатно и без рекламы последние новинки кино, игр, сериалов и прочего у нас, на Rutor.in. Не нужно использовать прокси, чтобы зайти на рутор, достаточно воспользоваться нашим ресурсом. Все новые фильмы, игры, сериалы, книги и музыка за 2013 и 2014 годы через торрент бесплатно. Скачивайте фильмы в хорошем качестве, игры для пк, xbox, playstation без регистрации. У нас вы найдете новые Зарубежные сериалы и Русские сериалы 2013, 2014, 2015 годов. Оставайтесь с нами, качайте любимые фильмы, игры, сериалы, книги и музыку.
cron