img image001 image001 image001 image001 image001 image001 image001 image001 image001 image001 image001 image001 image001 image001 image001

Planets Sun Sun Sun
Статистика раздачи
Автор: Снежана | Размер: 4.5 ГБ | Добавлен: 27 июл 2013
Раздают: 4    Качают: 3
Скачать торрент
Скачать торрент
Описание торрента

СообщениеДобавлено: 27 июл 2013 

#77

Информация о фильме
Название: BluScenes: Волны спокойствия /
Оригинальное название: BluScenes: Waves of Tranquility
Год выхода: 2012
Жанр: Видовой, релакс
Режиссер: Джейсон Розенфельд

О фильме:
Фильм серии Bluscenes. Создан, чтобы принести звуки волн в сочетании в прекрасной музыкой в ваш дом или офис. Замечательный фильм для релаксации и медитации.
Продолжительность: 01:40:36
Перевод: Не требуется (нет диалогов и комментариев)

Файл
Кодек: MPEG-4 AVC/H.264
Качество: BDRip (рип с Blu-Ray 1080p)
Видео: ~4000 kbps, 1280x720, 16:9, 23,976 fps
Аудиокодек: DTS, AC3 5.1, 2.0
Audio #1: DTS, 5.1 ch, 1510 kbps, 24 bits, 48 kHz - музыка и шум волн
Audio #2: AC3, 5.1 ch, 448 kbps, 48 kHz - музыка
Audio #3: AC3, 2.0, ch, 448 kbps, 48 kHz - шум волн

Общее
Уникальный идентификатор : 235069319657643095884542436745483314582 (0xB0D8B444B790AF9196185996C556E596)
Полное имя : BluScenes.Volny.spokoistvia.2012.BDRip.x264.720p.drony..mkv
Формат : Matroska
Версия формата : Version 4 / Version 2
Размер файла : 4,50 Гбайт
Продолжительность : 1 ч. 40 м.
Режим общего битрейта : Переменный
Общий поток : 6408 Кбит/сек
Дата кодирования : UTC 2013-02-13 15:38:15
Программа кодирования : mkvmerge v6.0.0 ('Coming Up For Air') built on Jan 20 2013 09:52:00
Библиотека кодирования : libebml v1.3.0 + libmatroska v1.4.0

Видео
Идентификатор : 1
Формат : AVC
Формат/Информация : Advanced Video Codec
Профиль формата : High@L4.1
Параметр CABAC формата : Да
Параметр ReFrames формата : 3 кадра
Идентификатор кодека : V_MPEG4/ISO/AVC
Продолжительность : 1 ч. 40 м.
Вид битрейта : Переменный
Битрейт : 3999 Кбит/сек
Максимальный битрейт : 15,0 Мбит/сек
Ширина : 1280 пикселей
Высота : 720 пикселей
Соотношение сторон : 16:9
Частота кадров : 23,976 кадра/сек
Цветовое пространство : YUV
Субдискретизация насыщенности : 4:2:0
Битовая глубина : 8 бит
Тип развёртки : Прогрессивная
Бит/(Пиксели*Кадры) : 0.181
Размер потока : 2,72 Гбайт (60%)
Заголовок : drony
Библиотека кодирования : x264 core 129 r2245 bc13772

Язык : English
Default : Да
Forced : Нет
Основные цвета : BT.709-5, BT.1361, IEC 61966-2-4, SMPTE RP177
Характеристики трансфера : BT.709-5, BT.1361
Коэффициенты матрицы : BT.709-5, BT.1361, IEC 61966-2-4 709, SMPTE RP177

Аудио #1
Идентификатор : 2
Формат : DTS
Формат/Информация : Digital Theater Systems
Идентификатор кодека : A_DTS
Продолжительность : 1 ч. 40 м.
Вид битрейта : Постоянный
Битрейт : 1510 Кбит/сек
Каналы : 6 каналов
Расположение каналов : Front: L C R, Side: L R, LFE
Частота : 48,0 КГц
Битовая глубина : 24 бит
Метод сжатия : С потерями
Размер потока : 1,06 Гбайт (24%)
Заголовок : DTS, 6 ch, 1510 kbps, 48 kHz, 24 bits
Язык : English
Default : Да
Forced : Нет

Аудио #2
Идентификатор : 3
Формат : AC-3
Формат/Информация : Audio Coding 3
Расширение режима : CM (complete main)
Параметр Endianness формата : Big
Идентификатор кодека : A_AC3
Продолжительность : 1 ч. 40 м.
Вид битрейта : Постоянный
Битрейт : 448 Кбит/сек
Каналы : 6 каналов
Расположение каналов : Front: L C R, Side: L R, LFE
Частота : 48,0 КГц
Битовая глубина : 16 бит
Метод сжатия : С потерями
Размер потока : 322 Мбайт (7%)
Заголовок : AC3, 6 ch, 448 kbps, 48 kHz, music
Язык : English
Default : Нет
Forced : Нет

Аудио #3
Идентификатор : 4
Формат : AC-3
Формат/Информация : Audio Coding 3
Расширение режима : CM (complete main)
Параметр Endianness формата : Big
Идентификатор кодека : A_AC3
Продолжительность : 1 ч. 40 м.
Вид битрейта : Постоянный
Битрейт : 448 Кбит/сек
Каналы : 2 канала
Расположение каналов : Front: L R
Частота : 48,0 КГц
Битовая глубина : 16 бит
Метод сжатия : С потерями
Размер потока : 322 Мбайт (7%)
Заголовок : AC3, 6 ch, 448 kbps, 48 kHz, volnu
Язык : English
Default : Нет
Forced : Нет




Релиз от: drony2010

.



   Похожие торренты   Торрент   Размер 
В этой теме нет новых непрочитанных сообщений. BluScenes: Цветущие сады / BluScenes: Flowering Gardens (2012) BDRip-AVC 1080p

6 | 1

1.93 ГБ

В этой теме нет новых непрочитанных сообщений. BluScenes: Величественные Водопады / BluScenes: Majestic Waterfalls (2010) BDRip 720p

8 | 5

5.59 ГБ

В этой теме нет новых непрочитанных сообщений. BluScenes: Путешествия по космосу / BluScenes: Journey Through Space (2009) BDRip 1080p

5 | 3

1.78 ГБ

В этой теме нет новых непрочитанных сообщений. Bluscenes: Звездное Путешествие / BluScenes: Journey Through Space (2009) BDRip 720p от ExKinoRay

2 | 1

1.1 ГБ

В этой теме нет новых непрочитанных сообщений. BluScenes: Аквариум с Коралловым Рифом / BluScenes: Coral Reef Aquarium (2009) BDRip 720p

5 | 2

3.13 ГБ

В этой теме нет новых непрочитанных сообщений. Bluscenes: Аквариум с Коралловым Рифом / BluScenes: Coral Reef Aquarium (2009) BDRip 720p

3 | 3

3.14 ГБ

В этой теме нет новых непрочитанных сообщений. Bluscenes - Звездное Путешествие / BluScenes - Journey Through Space (2009) HDRip от ExKinoRay

5 | 2

701.06 МБ




Вы не можете начинать темы
Вы не можете отвечать на сообщения
Вы не можете редактировать свои сообщения
Вы не можете удалять свои сообщения
Вы не можете добавлять вложения

Перейти:  
Для Мосгорсуда, Роскомнадзора и рекламодателей: mosgorsud-torrent[собачка]yandex.ru
 Вход
ppkBB3cker v.2 © 2008-2014 @ PPK
[ Time : 0.020s | 14 Queries | GZIP : Off ]

Торрент трекер RUTOR.IN, Не можете зайти на rutor.org? Какой новый адрес рутор? Какое зеркало рутор? Не работает rutor.org и зеркала? Тогда наш торрент специально для вас. Rutor.in неофициальное зеркало rutor. В случае если у Вас заблокирован rutor или вдруг Вы не можете на него зайти, то Вы без труда сможете скачать бесплатно и без рекламы последние новинки кино, игр, сериалов и прочего у нас, на Rutor.in. Не нужно использовать прокси, чтобы зайти на рутор, достаточно воспользоваться нашим ресурсом. Все новые фильмы, игры, сериалы, книги и музыка за 2013 и 2014 годы через торрент бесплатно. Скачивайте фильмы в хорошем качестве, игры для пк, xbox, playstation без регистрации. У нас вы найдете новые Зарубежные сериалы и Русские сериалы 2013, 2014, 2015 годов. Оставайтесь с нами, качайте любимые фильмы, игры, сериалы, книги и музыку.