img image001 image001 image001 image001 image001 image001 image001 image001 image001 image001 image001 image001 image001 image001 image001

Planets Sun Sun Sun
Статистика раздачи
Автор: Снежана | Размер: 604.98 МБ | Добавлен: 27 июл 2013
Раздают: 0    Качают: 5
Скачать торрент
Скачать торрент
Описание торрента

СообщениеДобавлено: 27 июл 2013 

#77
Человек и закон (15.02.2013)
Год выпуска: 2013
Страна: Россия
Жанр: Документальный
Ведущий: Алексей Пиманов
Продолжительность: 00:49:40
Перевод: Не требуется
Описание: Общественно-политическая программа "Человек и закон" выходит на главном телеканале страны уже 35 лет (Алексей Пиманов ведет программу с 1996 года). Столь "преклонный возраст" ничуть не мешает программе оставаться одной из самых востребованных и актуальных на отечественном телевидении. Быть может потому, что основные темы - борьба с организованной преступностью, расследования о коррупции в высших эшелонах власти, криминальные истории…
Качество: SATRip
Формат: AVI
Видео кодек: DivX
Аудио кодек: MP3
Видео: 704x400 (1.76:1), 25 fps, DivX Codec 6.8.5/6.9.1 ~1499 kbps avg
Аудио: 48 kHz, MPEG Layer 3, 2 ch, ~192.00 kbps avg
11 февраля Олимпийский чемпион Евгений Плющенко обратился в Краснопресненский суд Москвы с иском о защите чести и достоинства. Причиной послужили оскорбительные высказывания спортивного комментатора. Евгений Плющенко дал интервью нашей программе.

"Из зала суда". В конце прошлой недели в Мосгорсуде прошли процессуальные слушания в связи с экстрадицией в Россию бывшего первого зампрокурора Подмосковья Александра Игнатенко. В частности, по избранию ему дальнейшей меры пресечения. В распоряжении программы оказалась видеозапись этого заседания. Ответы самого Игнатенко по существу дела, поведение сторон заслуживают внимания.

Ростовская область. Программа выясняет, как так вышло и кто виноват, что в поселке Грабовка мать держала 2-летнего сына в сарае. По словам соседей, молодая женщина постоянно бросала малыша в промерзшем насквозь помещении. От неминуемой гибели Данилу спасла кошка, которая сутками отогревала мальчика. Мы отправились разбираться на место.

"Девочка, хочешь сниматься в кино?" Задержана с поличным предприимчивая дама армянской наружности, которая всем страждущим продавала некие сертификаты. Сертификаты "давали право" на участие и роли в сериалах, рекламе, клипах и в большом кино. Афера вскрылась, когда рассерженные граждане стали обрывать телефоны компании с требованием уже позвать наконец их на съемки. Поймать мошенницу (на момент совершения преступлений была несовершеннолетней) удалось, когда она пыталась обмануть очередную жертву.

Краснодарский край. Станица Тимошевская. Более 200 жителей станицы Тимашевская объявили голодовку. В основном это пожилые люди, бывшие работники колхоза, которые имеют оформленные паи на земельные наделы. Причина голодовки в том, что крупнейшая в крае агрофирма "Россия" единолично распоряжается землей пайщиков, не выплачивая им никаких дивидендов за землепользование. Когда крестьяне попытались перезаключить договора с другими фермерами на возделывания их земель, им стали угрожать представители "России". Собственников паев, которые в буквальном смысле ложились под трактора и комбайны, грубо выталкивали с поля. Доверенности на земельные наделы были подделаны, что установлено экспертизой. В итоге крестьян по факту лишили земельных паев - единственного, что у них осталось после 30 лет работы на износ.

Топ интернет-роликов.


ОбщееПолное имя : D:РаздачиChelovek.i.Zakon.15.02.2013.SATRip.aviФормат : AVIФормат/Информация : Audio Video InterleaveРазмер файла : 605 МбайтПродолжительность : 49 м.Общий поток : 1703 Кбит/секПрограмма кодирования : VirtualDubModRus 1.5.10.1 (build 2439/release)Библиотека кодирования : VirtualDubMod build 2439/release

ВидеоИдентификатор : 0Формат : MPEG-4 VisualПараметр BVOP формата : 1Параметр QPel формата : НетПараметр GMC формата : Без точки переходаПараметр матрицы формата : Default (H.263)Режим смешивания : Сжатый битовый потокИдентификатор кодека : DX50Идентификатор кодека/Подсказка : DivX 5Продолжительность : 49 м.Битрейт : 1501 Кбит/секШирина : 704 пикселяВысота : 400 пикселейСоотношение сторон : 16:9Частота кадров : 25,000 кадров/секЦветовое пространство : YUVСубдискретизация насыщенности : 4:2:0Битовая глубина : 8 битТип развёртки : ПрогрессивнаяМетод сжатия : С потерямиБит/(Пиксели*Кадры) : 0.213Размер потока : 533 Мбайт (88%)Библиотека кодирования : DivX 6.8.5 (UTC 2009-08-20)

АудиоИдентификатор : 1Формат : MPEG AudioВерсия формата : Version 1Профиль формата : Layer 3Идентификатор кодека : 50Продолжительность : 49 м.Вид битрейта : ПостоянныйБитрейт : 192 Кбит/секКаналы : 2 каналаЧастота : 48,0 КГцМетод сжатия : С потерямиРазмер потока : 68,2 Мбайт (11%)Выравнивание : Соединение по промежуткамПродолжительность промежутка : 40 мс. (1,00 видеокадр)Время предзагрузки промежутка : 504 мс.




   Похожие торренты   Торрент   Размер 
В этой теме нет новых непрочитанных сообщений. Человек и закон [эфир от 10.11] (2012) SATRip

0 | 2

643.9 МБ

В этой теме нет новых непрочитанных сообщений. Человек и закон [эфир от 08.12] (2012) SATRip

0 | 2

627.2 МБ

В этой теме нет новых непрочитанных сообщений. Человек и закон [эфир от 08.02] (2012) SATRip

0 | 2

629.33 МБ

В этой теме нет новых непрочитанных сообщений. Человек и закон [эфир от 22.03] (2012) SATRip

0 | 4

614.33 МБ

В этой теме нет новых непрочитанных сообщений. Человек и закон [эфир от 05.04] (2012) SATRip

0 | 2

626.47 МБ

В этой теме нет новых непрочитанных сообщений. Человек и закон [эфир от 03.11] (2012) SATRip

0 | 2

633.55 МБ

В этой теме нет новых непрочитанных сообщений. Человек и закон [эфир от 06.10] (2012) SATRip

0 | 2

633.96 МБ




Вы не можете начинать темы
Вы не можете отвечать на сообщения
Вы не можете редактировать свои сообщения
Вы не можете удалять свои сообщения
Вы не можете добавлять вложения

Перейти:  
Для Мосгорсуда, Роскомнадзора и рекламодателей: mosgorsud-torrent[собачка]yandex.ru
 Вход
ppkBB3cker v.2 © 2008-2014 @ PPK
[ Time : 0.591s | 14 Queries | GZIP : Off ]

Торрент трекер RUTOR.IN, Не можете зайти на rutor.org? Какой новый адрес рутор? Какое зеркало рутор? Не работает rutor.org и зеркала? Тогда наш торрент специально для вас. Rutor.in неофициальное зеркало rutor. В случае если у Вас заблокирован rutor или вдруг Вы не можете на него зайти, то Вы без труда сможете скачать бесплатно и без рекламы последние новинки кино, игр, сериалов и прочего у нас, на Rutor.in. Не нужно использовать прокси, чтобы зайти на рутор, достаточно воспользоваться нашим ресурсом. Все новые фильмы, игры, сериалы, книги и музыка за 2013 и 2014 годы через торрент бесплатно. Скачивайте фильмы в хорошем качестве, игры для пк, xbox, playstation без регистрации. У нас вы найдете новые Зарубежные сериалы и Русские сериалы 2013, 2014, 2015 годов. Оставайтесь с нами, качайте любимые фильмы, игры, сериалы, книги и музыку.