img image001 image001 image001 image001 image001 image001 image001 image001 image001 image001 image001 image001 image001 image001 image001

Planets Sun Sun Sun
Статистика раздачи
Автор: Снежана | Размер: 698.31 МБ | Добавлен: 27 июл 2013
Раздают: 5    Качают: 1
Скачать торрент
Скачать торрент
Описание торрента

СообщениеДобавлено: 27 июл 2013 

#77

Информация о фильме
Название: Почаев
Год выхода: 2006
Жанр: Документальный
Выпущено: Россия / Кинокомпания ООО "Техинвест-3"
Режиссер: Василий Киба, Татьяна Яцына
В ролях: Отец Геронтий, Петр Панчук, Анна Афанасьева, Сергей Радченко, Мария Смех

О фильме: Почаев - это фильм об истории Свято-Успенской Почаевской Лавры рассказанной человеком, который однажды посетив этот монастырь, почувствовал, что в нем самом произошли невероятные изменения, позволившие ему посмотреть на мир другими глазами. С тех пор при первой возможности он старается побывать там снова. И так, с нашим героем – «Путником» мы начинаем путешествие...

Качество: DVDRip
Видео: XviD, 1326 Кбит/с, 704x416, 25.000 кадр/с
Аудио: Русский (AC3, 2 ch, 192 Кбит/с)
Продолжительность: 01:03:55

General
Complete name : E:RipsПочаев.avi
Format : AVI
Format/Info : Audio Video Interleave
File size : 698 MiB
Duration : 1h 3mn
Overall bit rate : 1 528 Kbps
Writing application : FairUse Wizard - http://fairusewizard.com
Writing library : The best and REALLY easy backup tool

Video
ID : 0
Format : MPEG-4 Visual
Format profile : Advanced Simple@L5
Format settings, BVOP : Yes
Format settings, QPel : No
Format settings, GMC : No warppoints
Format settings, Matrix : Default (MPEG)
Muxing mode : Packed bitstream
Codec ID : XVID
Codec ID/Hint : XviD
Duration : 1h 3mn
Bit rate : 1 326 Kbps
Width : 704 pixels
Height : 416 pixels
Display aspect ratio : 1.692
Frame rate : 25.000 fps
Color space : YUV
Chroma subsampling : 4:2:0
Bit depth : 8 bits
Scan type : Progressive
Bits/(Pixel*Frame) : 0.181
Stream size : 606 MiB (87 % )
Writing library : XviD 1.2.0.dev47 (UTC 2006-11-01)

Audio
ID : 1
Format : AC-3
Format/Info : Audio Coding 3
Mode extension : CM (complete main)
Codec ID : 2000
Duration : 1h 3mn
Bit rate mode : Constant
Bit rate : 192 Kbps
Channel(s) : 2 channels
Channel positions : Front: L R
Sampling rate : 48.0 KHz
Bit depth : 16 bits
Stream size : 87.8 MiB (13 % )
Alignment : Split accross interleaves
Interleave, duration : 40 ms (1.00 video frame)
Interleave, preload duration : 500 ms

Уникальные факты, невероятные события из истории Свято - Успенской Почаевской Лавры. Борьба, коварство, прозрение и духовное возрождение - живая история православия.

Первая премия Международного кинофестиваля «Покров». Киев 2006.
Лауреат международного кинофестиваля «Радонеж». Москва 2006.









Релиз от:



   Похожие торренты   Торрент   Размер 
В этой теме нет новых непрочитанных сообщений. Почаев (2006) DVDRip

0 | 2

1.24 ГБ

В этой теме нет новых непрочитанных сообщений. Почаев (2006) DVDRip

8 | 2

1.26 ГБ

В этой теме нет новых непрочитанных сообщений. Крылья России. Звезды Гидроавиасалона 1996-2006 (2006) DVDRip-AVC от Тorrent-Хzona

1 | 4

743.37 МБ

В этой теме нет новых непрочитанных сообщений. Чемпионаты мира по футболу 1930-2006 / FIFA WORLD CUP 1930-2006 [10х15] (2010) DVDRip от KinoZalSat

2 | 7

1.37 ГБ

В этой теме нет новых непрочитанных сообщений. Чемпионаты мира по футболу 1930-2006 / FIFA WORLD CUP 1930-2006 [9х15] (2010) DVDRip от KinoZalSat

2 | 6

1.37 ГБ

В этой теме нет новых непрочитанных сообщений. Чемпионаты мира по футболу 1930-2006 / FIFA WORLD CUP 1930 - 2006 [8х15] (2010) DVDRip от KinoZalSat

20 | 7

1.37 ГБ

В этой теме нет новых непрочитанных сообщений. Чемпионаты мира по футболу 1930-2006 / FIFA WORLD CUP 1930 - 2006 [7х15] (2010) DVDRip от KinoZalSat

1 | 4

1.37 ГБ




Вы не можете начинать темы
Вы не можете отвечать на сообщения
Вы не можете редактировать свои сообщения
Вы не можете удалять свои сообщения
Вы не можете добавлять вложения

Перейти:  
Для Мосгорсуда, Роскомнадзора и рекламодателей: mosgorsud-torrent[собачка]yandex.ru
 Вход
ppkBB3cker v.2 © 2008-2014 @ PPK
[ Time : 0.034s | 15 Queries | GZIP : Off ]

Торрент трекер RUTOR.IN, Не можете зайти на rutor.org? Какой новый адрес рутор? Какое зеркало рутор? Не работает rutor.org и зеркала? Тогда наш торрент специально для вас. Rutor.in неофициальное зеркало rutor. В случае если у Вас заблокирован rutor или вдруг Вы не можете на него зайти, то Вы без труда сможете скачать бесплатно и без рекламы последние новинки кино, игр, сериалов и прочего у нас, на Rutor.in. Не нужно использовать прокси, чтобы зайти на рутор, достаточно воспользоваться нашим ресурсом. Все новые фильмы, игры, сериалы, книги и музыка за 2013 и 2014 годы через торрент бесплатно. Скачивайте фильмы в хорошем качестве, игры для пк, xbox, playstation без регистрации. У нас вы найдете новые Зарубежные сериалы и Русские сериалы 2013, 2014, 2015 годов. Оставайтесь с нами, качайте любимые фильмы, игры, сериалы, книги и музыку.
cron