img image001 image001 image001 image001 image001 image001 image001 image001 image001 image001 image001 image001 image001 image001 image001

Planets Sun Sun Sun
Статистика раздачи
Автор: Снежана | Размер: 322.2 МБ | Добавлен: 27 июл 2013
Раздают: 2    Качают: 2
Скачать торрент
Скачать торрент
Описание торрента

СообщениеДобавлено: 27 июл 2013 

#77

Информация о фильме
Название: Команданте
Год выхода: 2013
Жанр: документальный, биография
Производство: Белтелерадиокомпания
Страна: Беларусь
Продолжительность программы: 00:33:30
Перевод: Не требуется

Описание: Президент, который навсегда изменил лицо Латинской Америки. Человек, ставший при жизни легендой. И личность, вернувшая в политику понятие дружба. Большой фильм Агентства теленовостей - "Команданте".

Файл
Кодек: XviD
Качество: DVBRip
Видео: 624x464, 25 к/с, 4:3, 1200 кбит/с
Звук: MP3, 128 кбит/с, 48 кгц, стерео

General
Format : AVI
Format/Info : Audio Video Interleave
File size : 322 MiB
Duration : 33mn 30s
Overall bit rate : 1 345 Kbps
Writing application : VirtualDubMod 1.5.10.2 (build 2540/release)
Writing library : VirtualDubMod build 2540/release

Video
ID : 0
Format : MPEG-4 Visual
Format profile : Advanced Simple@L5
Format settings, BVOP : 2
Format settings, QPel : Yes
Format settings, GMC : No warppoints
Format settings, Matrix : Default (MPEG)
Muxing mode : Packed bitstream
Codec ID : XVID
Codec ID/Hint : XviD
Duration : 33mn 30s
Bit rate : 1 207 Kbps
Width : 624 pixels
Height : 464 pixels
Display aspect ratio : 4:3
Frame rate : 25.000 fps
Color space : YUV
Chroma subsampling : 4:2:0
Bit depth : 8 bits
Scan type : Progressive
Compression mode : Lossy
Bits/(Pixel*Frame) : 0.167
Stream size : 289 MiB (90%)
Writing library : XviD 1.2.1 (UTC 2008-12-04)

Audio
ID : 1
Format : MPEG Audio
Format version : Version 1
Format profile : Layer 3
Mode : Joint stereo
Mode extension : MS Stereo
Codec ID : 55
Codec ID/Hint : MP3
Duration : 33mn 30s
Bit rate mode : Constant
Bit rate : 128 Kbps
Channel(s) : 2 channels
Sampling rate : 48.0 KHz
Compression mode : Lossy
Stream size : 30.7 MiB (10%)
Alignment : Aligned on interleaves
Interleave, duration : 40 ms (1.00 video frame)
Interleave, preload duration : 504 ms




   Похожие торренты   Торрент   Размер 
В этой теме нет новых непрочитанных сообщений. Команданте / Comandante (2003) DVDRip-AVC от Тorrent-Хzona

2 | 6

1.29 ГБ

В этой теме нет новых непрочитанных сообщений. Автоспорт. Чемпионат мира по ралли 2013 / World Rally Championship (WRC) 2013. 2/13. Швеция. Обзор (2013) DVBRip-AVC, HDTVRip-AVC 720р

0 | 2

7.63 ГБ

В этой теме нет новых непрочитанных сообщений. Автоспорт. Чемпионат мира по ралли 2013 / World Rally Championship (WRC) 2013. 01/13. Монте Карло. Обзор (2013) DVBRip-AVC, HDTVRip-AVC 720р

0 | 2

7.67 ГБ

В этой теме нет новых непрочитанных сообщений. Мотоспорт. Speedway Grand Prix. 2013. 5/12. Гран-При Великобритании (2013) DVBRip-AVC

0 | 1

2.79 ГБ

В этой теме нет новых непрочитанных сообщений. Футбол. Чемпионат Голландии 2013-14. 3-й тур. Твенте (Энсхеде) - Утрехт (2013) DVBRip

0 | 1

1.28 ГБ

В этой теме нет новых непрочитанных сообщений. Футбол. Чемпионат России 2012-2013. 24-й тур. Рубин - Ростов (2013) DVBRip

0 | 1

1.73 ГБ

В этой теме нет новых непрочитанных сообщений. Футбол. Чемпионат России 2012-2013. 24-й тур. Спартак - Амкар (2013) DVBRip

0 | 2

1.78 ГБ




Вы не можете начинать темы
Вы не можете отвечать на сообщения
Вы не можете редактировать свои сообщения
Вы не можете удалять свои сообщения
Вы не можете добавлять вложения

Перейти:  
Для Мосгорсуда, Роскомнадзора и рекламодателей: mosgorsud-torrent[собачка]yandex.ru
 Вход
ppkBB3cker v.2 © 2008-2014 @ PPK
[ Time : 3.312s | 16 Queries | GZIP : On ]

Торрент трекер RUTOR.IN, Не можете зайти на rutor.org? Какой новый адрес рутор? Какое зеркало рутор? Не работает rutor.org и зеркала? Тогда наш торрент специально для вас. Rutor.in неофициальное зеркало rutor. В случае если у Вас заблокирован rutor или вдруг Вы не можете на него зайти, то Вы без труда сможете скачать бесплатно и без рекламы последние новинки кино, игр, сериалов и прочего у нас, на Rutor.in. Не нужно использовать прокси, чтобы зайти на рутор, достаточно воспользоваться нашим ресурсом. Все новые фильмы, игры, сериалы, книги и музыка за 2013 и 2014 годы через торрент бесплатно. Скачивайте фильмы в хорошем качестве, игры для пк, xbox, playstation без регистрации. У нас вы найдете новые Зарубежные сериалы и Русские сериалы 2013, 2014, 2015 годов. Оставайтесь с нами, качайте любимые фильмы, игры, сериалы, книги и музыку.