img image001 image001 image001 image001 image001 image001 image001 image001 image001 image001 image001 image001 image001 image001 image001

Planets Sun Sun Sun
Статистика раздачи
Автор: Снежана | Размер: 5.02 ГБ | Добавлен: 27 июл 2013
Раздают: 9    Качают: 4
Скачать торрент
Скачать торрент
Описание торрента

СообщениеДобавлено: 27 июл 2013 

#77

Информация о фильме
Название: Хью Хефнер: Плейбой, активист и бунтарь
Оригинальное название: Hugh Hefner: Playboy, Activist and Rebel
Год выхода: 2009
Жанр: Документальный, биография
Режиссер: Бриджитт Берман
В ролях: Хью Хефнер, Барби Бентон, Моник Сент-Пьерр, Дороти Страттен, Майкл Ури, Кит Хефнер, Джеймс Коберн

О фильме:
История о необыкновенно яркой и открытой жизни основателя империи Плейбой Хью Хефнера. В фильме достоверно и с юмором рассказывается о жесточайших сражениях Хефнера с правительством, религиозными правыми и воинствующими феминистками. Редкие материалы и интересные интервью с выдающимися людьми XX века дают зрителю великолепную возможность больше узнать об этом особенном человеке и его противоречивом окружении.


Страна: Канада
Студия: Metaphor Films
Продолжительность: 02:04:28
Перевод: Профессиональный многоголосый

Файл
Кодек: MPEG-4 AVC
Качество: HDTVRip (720p)
Видео: 5200 Кбит/с, 1280x720, 23.976 кадр/с
Звук: Русский (AC3, 2 ch, 192 Кбит/с), английский (AC3, 6 ch, 384 Кбит/с)
Общее
Уникальный идентификатор : 198994084865109276028665693877672056221 (0x95B4DDDEB99E43B38B6D7D12CC3B959D)
Полное имя : Hugh.Hefner.Playboy.Activist.and.Rebel.2009.HDTVRip.720p.mkv
Формат : Matroska
Версия формата : Version 4 / Version 2
Размер файла : 5,02 Гбайт
Продолжительность : 2 ч. 4 м.
Общий поток : 5778 Кбит/сек
Название фильма : Created by DeathN2 for Кинозал.ТВ
Дата кодирования : UTC 2013-03-15 20:14:03
Программа кодирования : mkvmerge v6.1.0 ('Old Devil') built on Mar 2 2013 14:32:37
Библиотека кодирования : libebml v1.3.0 + libmatroska v1.4.0

Видео
Идентификатор : 1
Формат : AVC
Формат/Информация : Advanced Video Codec
Профиль формата : High@L4.1
Параметр CABAC формата : Да
Параметр ReFrames формата : 8 кадров
Идентификатор кодека : V_MPEG4/ISO/AVC
Продолжительность : 2 ч. 4 м.
Битрейт : 5200 Кбит/сек
Ширина : 1280 пикселей
Высота : 720 пикселей
Соотношение сторон : 16:9
Режим частоты кадров : Постоянный
Частота кадров : 23,976 кадра/сек
Цветовое пространство : YUV
Субдискретизация насыщенности : 4:2:0
Битовая глубина : 8 бит
Тип развёртки : Прогрессивная
Бит/(Пиксели*Кадры) : 0.235
Размер потока : 4,42 Гбайт (88%)
Библиотека кодирования : x264 core 129 r2230 1cffe9f
Настройки программы : cabac=1 / ref=8 / deblock=1:-3:-3 / analyse=0x3:0x113 / me=umh / subme=11 / psy=1 / psy_rd=1.00:0.05 / mixed_ref=1 / me_range=40 / chroma_me=1 / trellis=2 / 8x8dct=1 / cqm=0 / deadzone=21,11 / fast_pskip=0 / chroma_qp_offset=-3 / threads=4 / lookahead_threads=1 / sliced_threads=0 / nr=0 / decimate=0 / interlaced=0 / bluray_compat=0 / constrained_intra=0 / bframes=3 / b_pyramid=2 / b_adapt=2 / b_bias=0 / direct=3 / weightb=1 / open_gop=0 / weightp=2 / keyint=96 / keyint_min=9 / scenecut=40 / intra_refresh=0 / rc=2pass / mbtree=0 / bitrate=5200 / ratetol=1.0 / qcomp=0.60 / qpmin=10 / qpmax=51 / qpstep=4 / cplxblur=20.0 / qblur=0.5 / ip_ratio=1.40 / pb_ratio=1.30 / aq=1:1.00
Default : Да
Forced : Да

Аудио #1
Идентификатор : 2
Формат : AC-3
Формат/Информация : Audio Coding 3
Расширение режима : CM (complete main)
Параметр Endianness формата : Big
Идентификатор кодека : A_AC3
Продолжительность : 2 ч. 4 м.
Вид битрейта : Постоянный
Битрейт : 192 Кбит/сек
Каналы : 2 канала
Расположение каналов : Front: L R
Частота : 48,0 КГц
Битовая глубина : 16 бит
Метод сжатия : С потерями
Размер потока : 171 Мбайт (3%)
Язык : Russian
Default : Да
Forced : Да

Аудио #2
Идентификатор : 3
Формат : AC-3
Формат/Информация : Audio Coding 3
Расширение режима : CM (complete main)
Параметр Endianness формата : Big
Идентификатор кодека : A_AC3
Продолжительность : 2 ч. 4 м.
Вид битрейта : Постоянный
Битрейт : 384 Кбит/сек
Каналы : 6 каналов
Расположение каналов : Front: L C R, Side: L R, LFE
Частота : 48,0 КГц
Битовая глубина : 16 бит
Метод сжатия : С потерями
Размер потока : 342 Мбайт (7%)
Язык : English
Default : Нет
Forced : Нет





   Похожие торренты   Торрент   Размер 
В этой теме нет новых непрочитанных сообщений. Хью Хефнер: Плейбой, активист и бунтарь / Hugh Hefner: Playboy, Activist and Rebel (2009) HDTVRip

12 | 3

2.06 ГБ

В этой теме нет новых непрочитанных сообщений. Хью Хефнер: Плейбой, активист и бунтарь / Hugh Hefner: Playboy, Activist and Rebel (2009) HDTV 1080i от HDClub

1 | 3

10.2 ГБ

В этой теме нет новых непрочитанных сообщений. Бунтарь без идеала / Rebel Without a Cause (1955) BDRip 720p | P, P2

44 | 12

7.08 ГБ

В этой теме нет новых непрочитанных сообщений. Плейбой. Пляжный домик / Playboy. Beach House Model (2011) HDTVRip 720p

53 | 12

599.28 МБ

В этой теме нет новых непрочитанных сообщений. Гордый бунтарь / The Proud Rebel (1958) DVDRip

75 | 19

1.42 ГБ

В этой теме нет новых непрочитанных сообщений. Плейбой - Видеокалендарь / Playboy - Playmate Video Calendar (2009) DVD5

92 | 19

3.8 ГБ

В этой теме нет новых непрочитанных сообщений. Плейбой - Видеокалендари / Playboy - Playmate Video Calendar's (2006-2009) 4 x DVD5

17 | 18

14.7 ГБ




Вы не можете начинать темы
Вы не можете отвечать на сообщения
Вы не можете редактировать свои сообщения
Вы не можете удалять свои сообщения
Вы не можете добавлять вложения

Перейти:  
Для Мосгорсуда, Роскомнадзора и рекламодателей: mosgorsud-torrent[собачка]yandex.ru
 Вход
ppkBB3cker v.2 © 2008-2014 @ PPK
[ Time : 0.517s | 14 Queries | GZIP : Off ]

Торрент трекер RUTOR.IN, Не можете зайти на rutor.org? Какой новый адрес рутор? Какое зеркало рутор? Не работает rutor.org и зеркала? Тогда наш торрент специально для вас. Rutor.in неофициальное зеркало rutor. В случае если у Вас заблокирован rutor или вдруг Вы не можете на него зайти, то Вы без труда сможете скачать бесплатно и без рекламы последние новинки кино, игр, сериалов и прочего у нас, на Rutor.in. Не нужно использовать прокси, чтобы зайти на рутор, достаточно воспользоваться нашим ресурсом. Все новые фильмы, игры, сериалы, книги и музыка за 2013 и 2014 годы через торрент бесплатно. Скачивайте фильмы в хорошем качестве, игры для пк, xbox, playstation без регистрации. У нас вы найдете новые Зарубежные сериалы и Русские сериалы 2013, 2014, 2015 годов. Оставайтесь с нами, качайте любимые фильмы, игры, сериалы, книги и музыку.