img image001 image001 image001 image001 image001 image001 image001 image001 image001 image001 image001 image001 image001 image001 image001

Planets Sun Sun Sun
Статистика раздачи
Автор: Снежана | Размер: 617.93 МБ | Добавлен: 27 июл 2013
Раздают: 6    Качают: 1
Скачать торрент
Скачать торрент
Описание торрента

СообщениеДобавлено: 27 июл 2013 

Чебаркульский метеорит. Месяц спустя




#77

Год выпуска: 2013
Страна: Россия
Жанр: Документальный
Продолжительность: 00:49:42
Перевод: Не требуется
Русские субтитры: нет

Режиссер: Илья Петров

Описание: Прошел месяц со дня падения Чебаркульского метеорита. Никто не погиб, раненые долечиваются, поврежденные здания приводят в порядок, вставили стекла. Но на этом история только начинается. Что на самом деле взорвалось над Челябинском? Почему обломки небесного тела не повредили ни одного стратегического объекта? Не является ли взрыв метеорита над городом своего рода знаком из космоса? Ученые, писатели, независимые исследователи рассматривают Чебаркульскую катастрофу под разными углами зрения. Многие приходят к выводу, что падение метеорита не случайное событие, а закономерность. Что представляет собой наша цивилизация в масштабах космических процессов? Можно ли этими процессами управлять? И насколько был близок к истине настоятель одного из челябинских храмов, назвав Челябинск "богоспасаемым городом"?

Качество: SATRip
Формат: AVI
Видеокодек: XviD
Аудиокодек: MP3
Видео: DivX, 720x400, 25 fps, 1600 kbit/s
Аудио: MPEG Layer 3, 48000 Hz, 128 kbit/s, stereo
Общее
Формат : AVI
Формат/Информация : Audio Video Interleave
Размер файла : 620 Мбайт
Продолжительность : 49 м.
Общий поток : 1738 Кбит/сек
Программа кодирования : VirtualDubModRus 1.5.10.2 (build 2542/release)
Библиотека кодирования : VirtualDubMod build 2542/release
Правообладатель : Shuriman

Видео
Идентификатор : 0
Формат : MPEG-4 Visual
Параметр BVOP формата : 1
Параметр QPel формата : Нет
Параметр GMC формата : Без точки перехода
Параметр матрицы формата : Default (H.263)
Режим смешивания : Сжатый битовый поток
Идентификатор кодека : DX50
Идентификатор кодека/Подсказка : DivX 5
Продолжительность : 49 м.
Битрейт : 1600 Кбит/сек
Ширина : 720 пикселей
Высота : 400 пикселей
Соотношение сторон : 16:9
Частота кадров : 25,000 кадров/сек
Цветовое пространство : YUV
Субдискретизация насыщенности : 4:2:0
Битовая глубина : 8 бит
Тип развёртки : Прогрессивная
Метод сжатия : С потерями
Бит/(Пиксели*Кадры) : 0.222
Размер потока : 571 Мбайт (92%)
Библиотека кодирования : DivX 6.8.5 (UTC 2009-08-20)

Аудио
Идентификатор : 1
Формат : MPEG Audio
Версия формата : Version 1
Профиль формата : Layer 3
Режим : Joint stereo
Расширение режима : MS Stereo
Идентификатор кодека : 55
Идентификатор кодека/Подсказка : MP3
Продолжительность : 49 м.
Вид битрейта : Постоянный
Битрейт : 128 Кбит/сек
Каналы : 2 канала
Частота : 48,0 КГц
Метод сжатия : С потерями
Размер потока : 45,7 Мбайт (7%)
Выравнивание : Разделение по промежуткам
Продолжительность промежутка : 40 мс. (1,00 видеокадр)
Время предзагрузки промежутка : 500 мс.





   Похожие торренты   Торрент   Размер 
В этой теме нет новых непрочитанных сообщений. Челябинский метеорит - Семь дней спустя (2013.02.22) SATRip

9 | 13

452.59 МБ

В этой теме нет новых непрочитанных сообщений. Чистосердечное признание. Чебаркульский пришелец [эфир от 17.02] (2013) SATRip

1 | 1

353.07 МБ

В этой теме нет новых непрочитанных сообщений. Метеорит [01-08 из 08] (2016) SATRip от РиперАМ

7243 | 2255

4.9 ГБ

В этой теме нет новых непрочитанных сообщений. Метеорит [01-04 из 08] (2016) SATRip от РиперАМ

2014 | 645

2.51 ГБ

В этой теме нет новых непрочитанных сообщений. Метеорит [01 из 08] (2016) SATRip от РиперАМ

97 | 3

657.16 МБ

В этой теме нет новых непрочитанных сообщений. Бальзаковский возраст, или все мужики сво… 5 лет спустя [01-04 из 04] (2013) SATRip

342 | 22

2.15 ГБ

В этой теме нет новых непрочитанных сообщений. Громкое дело. Тунгусский метеорит (2010) SATRip

6 | 4

199.69 МБ




Вы не можете начинать темы
Вы не можете отвечать на сообщения
Вы не можете редактировать свои сообщения
Вы не можете удалять свои сообщения
Вы не можете добавлять вложения

Перейти:  
Для Мосгорсуда, Роскомнадзора и рекламодателей: mosgorsud-torrent[собачка]yandex.ru
 Вход
ppkBB3cker v.2 © 2008-2014 @ PPK
[ Time : 2.838s | 15 Queries | GZIP : Off ]

Торрент трекер RUTOR.IN, Не можете зайти на rutor.org? Какой новый адрес рутор? Какое зеркало рутор? Не работает rutor.org и зеркала? Тогда наш торрент специально для вас. Rutor.in неофициальное зеркало rutor. В случае если у Вас заблокирован rutor или вдруг Вы не можете на него зайти, то Вы без труда сможете скачать бесплатно и без рекламы последние новинки кино, игр, сериалов и прочего у нас, на Rutor.in. Не нужно использовать прокси, чтобы зайти на рутор, достаточно воспользоваться нашим ресурсом. Все новые фильмы, игры, сериалы, книги и музыка за 2013 и 2014 годы через торрент бесплатно. Скачивайте фильмы в хорошем качестве, игры для пк, xbox, playstation без регистрации. У нас вы найдете новые Зарубежные сериалы и Русские сериалы 2013, 2014, 2015 годов. Оставайтесь с нами, качайте любимые фильмы, игры, сериалы, книги и музыку.
cron