img image001 image001 image001 image001 image001 image001 image001 image001 image001 image001 image001 image001 image001 image001 image001

Planets Sun Sun Sun
Статистика раздачи
Автор: Снежана | Размер: 609.92 МБ | Добавлен: 27 июл 2013
Раздают: 13    Качают: 2
Скачать торрент
Скачать торрент
Описание торрента

СообщениеДобавлено: 27 июл 2013 

#77

Год выпуска: 2013
Страна: Россия
Жанр: Научно-популярное
Продолжительность: 00:47:14
Перевод: Не требуется
Режиссер: Иван Дыба

Описание: Существует версия, что первую Азбуку вручил человеку Бог. Но зачем тогда древнему воину понадобился топорный алфавит? Исследователи полагают, первая письменность появилась у Древних Славян. Протославянский язык дал начало языкам большей части Европы. Существует предположение, что современная цивилизация произошла от Древних Славян.

Однако версия о Славянских корнях Прародителях Человечества не дает покоя Мировой Закулисы. Какие силы не заинтересованы в честной истории?

Уникальные археологические находки в Кемеровской области приводят к мысли, что некогда существовала развитая цивилизация, давшая начало славянским племенам и русскому языку.

качество: SATRip
формат: AVI
видеокодек: XviD
аудиокодек: MP3
Видео: 704x400, 1667 kbps, 25 fps
Аудио: 128 kbps, 48.0 Khz, 2 ch

General
Complete name : D:Живая тема. Азбука Предков [11.03.2013].avi
Format : AVI
Format/Info : Audio Video Interleave
File size : 610 MiB
Duration : 47mn 14s
Overall bit rate : 1 805 Kbps
Writing application : VirtualDubMod 1.5.10.2 (build 2540/release)
Writing library : VirtualDub build 33815/release

Video
ID : 0
Format : MPEG-4 Visual
Format profile : Advanced Simple@L5
Format settings, BVOP : 2
Format settings, QPel : No
Format settings, GMC : No warppoints
Format settings, Matrix : Default (H.263)
Muxing mode : Packed bitstream
Codec ID : XVID
Codec ID/Hint : XviD
Duration : 47mn 14s
Bit rate : 1 667 Kbps
Width : 704 pixels
Height : 400 pixels
Display aspect ratio : 16:9
Frame rate : 25.000 fps
Color space : YUV
Chroma subsampling : 4:2:0
Bit depth : 8 bits
Scan type : Progressive
Compression mode : Lossy
Bits/(Pixel*Frame) : 0.237
Stream size : 563 MiB (92%)
Writing library : XviD 64

Audio
ID : 1
Format : MPEG Audio
Format version : Version 1
Format profile : Layer 3
Mode : Joint stereo
Codec ID : 55
Codec ID/Hint : MP3
Duration : 47mn 14s
Bit rate mode : Constant
Bit rate : 128 Kbps
Channel(s) : 2 channels
Sampling rate : 48.0 KHz
Compression mode : Lossy
Stream size : 43.2 MiB (7%)
Alignment : Aligned on interleaves
Interleave, duration : 40 ms (1.00 video frame)
Interleave, preload duration : 504 ms





   Похожие торренты   Торрент   Размер 
В этой теме нет новых непрочитанных сообщений. Живая тема. Бессмертие животных [эфир от 17.02] (2013) SATRip

3 | 4

609.57 МБ

В этой теме нет новых непрочитанных сообщений. Живая тема. Звезды на диете [эфир от 03.06] (2012) SATRip by maksnev82

2 | 1

627.9 МБ

В этой теме нет новых непрочитанных сообщений. Живая тема. Мой муж - марсианин [эфир от 24.04] (2012) IPTVRip от Generalfilm

0 | 2

582.64 МБ

В этой теме нет новых непрочитанных сообщений. Живая тема. Бойтесь колдовства [эфир от 17.04] (2012) IPTVRip от Generalfilm

0 | 1

546.31 МБ

В этой теме нет новых непрочитанных сообщений. Живая тема. Неравный брак [эфир от 29.05] (2012) IPTVRip от Киномагия

3 | 1

576.75 МБ

В этой теме нет новых непрочитанных сообщений. Живая тема. Убийство от кутюр [эфир от 03.04] (2012) IPTVRip от Generalfilm

1 | 2

579.02 МБ

В этой теме нет новых непрочитанных сообщений. Живая тема. Вороны. Хранители ада [эфир от 22.05] (2012) IPTVRip от Киномагия

1 | 3

611.26 МБ




Вы не можете начинать темы
Вы не можете отвечать на сообщения
Вы не можете редактировать свои сообщения
Вы не можете удалять свои сообщения
Вы не можете добавлять вложения

Перейти:  
Для Мосгорсуда, Роскомнадзора и рекламодателей: mosgorsud-torrent[собачка]yandex.ru
 Вход
ppkBB3cker v.2 © 2008-2014 @ PPK
[ Time : 0.038s | 14 Queries | GZIP : Off ]

Торрент трекер RUTOR.IN, Не можете зайти на rutor.org? Какой новый адрес рутор? Какое зеркало рутор? Не работает rutor.org и зеркала? Тогда наш торрент специально для вас. Rutor.in неофициальное зеркало rutor. В случае если у Вас заблокирован rutor или вдруг Вы не можете на него зайти, то Вы без труда сможете скачать бесплатно и без рекламы последние новинки кино, игр, сериалов и прочего у нас, на Rutor.in. Не нужно использовать прокси, чтобы зайти на рутор, достаточно воспользоваться нашим ресурсом. Все новые фильмы, игры, сериалы, книги и музыка за 2013 и 2014 годы через торрент бесплатно. Скачивайте фильмы в хорошем качестве, игры для пк, xbox, playstation без регистрации. У нас вы найдете новые Зарубежные сериалы и Русские сериалы 2013, 2014, 2015 годов. Оставайтесь с нами, качайте любимые фильмы, игры, сериалы, книги и музыку.