img image001 image001 image001 image001 image001 image001 image001 image001 image001 image001 image001 image001 image001 image001 image001

Planets Sun Sun Sun
Статистика раздачи
Автор: Снежана | Размер: 2.18 ГБ | Добавлен: 27 июл 2013
Раздают: 2    Качают: 1
Скачать торрент
Скачать торрент
Описание торрента

СообщениеДобавлено: 27 июл 2013 

Что мы знаем про дьявола / Der Teufel - Die Personifizierung des Bosen / The Devil We Know (2011) BDRip 720p
Релиз от GYN

Информация о фильме:
Название: Что мы знаем про дьявола
Оригинальное название: The Devil We Know (Der Teufel - Die Personifizierung des Bösen)
Год выхода: 2011
Жанр: Документальный, История, Культура, Религия, Эзотерика, Искусство, Исследование
Режиссёр: Джессика Браун, Джон Уэстли Чишолм
Сюжет фильма:
Дьявол, Князь Тьмы... Он страшен, он зол, он создает много шума, но причинить вред может только тогда, когда шагнешь в зону досягаемости его цепи... Но серьезного вреда причинить он не может, поскольку он создание. Это враг - но враг поверженный. Будьте внимательны, будьте осторожны! Но не относитесь к нему слишком серьезно... От Библии к рок-н-роллу и интернету - этот документальный фильм исследует образ Князя Тьмы в искусстве и поп-культуре. Теологи, искусствоведы и музыканты расскажут о роли дьявола в религии и других сферах жизни.

Страна: Канада, Великобритания
Продолжительность: 00:42:01
Перевод: Одноголосый закадровый (Вячеслав Козлов)
Субтитры: Отсутствуют
Информация о файле:
Качество: BDRip 720p
Файл: MKV
Кодек: MPEG-4 AVC, H264 codec
Видео: 1280 x 720, 16:9; 25.000 fps; ~ 6946 kbps; 0.308 bit/pixel
Аудио: 48 kHz, AC3 Dolby Digital, 2.0 (L,R,) ch, ~192.00 kbps avg
Размер: 2235 Mb (1/2 )

General
Unique ID : 193699538934586511649815682897399716667 (0x91B92C99FF4E4DE7875A62823CC31B3B)
Complete name : F:The Devil.We.Know.2010.RUS.BDRip.720p.h264.AC3.-GYN.mkv
Format : Matroska
Format version : Version 4 / Version 2
File size : 2.18 GiB
Duration : 42mn 1s
Overall bit rate mode : Variable
Overall bit rate : 7 436 Kbps
Movie name : The Devil We Know / Der Teufel - Die Personifizierung des Bösen (2010)
Encoded date : UTC 2013-03-21 09:08:33
Writing application : mkvmerge v6.1.0 ('Old Devil') built on Mar 2 2013 14:32:37
Writing library : libebml v1.3.0 + libmatroska v1.4.0
Video
ID : 1
Format : AVC
Format/Info : Advanced Video Codec
Format profile : High@L4.1
Format settings, CABAC : Yes
Format settings, ReFrames : 6 frames
Codec ID : V_MPEG4/ISO/AVC
Duration : 42mn 1s
Bit rate mode : Variable
Bit rate : 7 096 Kbps
Maximum bit rate : 6 946 Kbps
Width : 1 280 pixels
Height : 720 pixels
Display aspect ratio : 16:9
Frame rate : 25.000 fps
Color space : YUV
Chroma subsampling : 4:2:0
Bit depth : 8 bits
Scan type : Progressive
Bits/(Pixel*Frame) : 0.308
Stream size : 2.08 GiB (95%)
Title : Encoded by GYN
Default : Yes
Forced : No
Audio
ID : 2
Format : AC-3
Format/Info : Audio Coding 3
Mode extension : CM (complete main)
Codec ID : A_AC3
Duration : 42mn 1s
Bit rate mode : Constant
Bit rate : 192 Kbps
Channel(s) : 2 channels
Channel positions : Front: L R
Sampling rate : 48.0 KHz
Bit depth : 16 bits
Compression mode : Lossy
Stream size : 57.7 MiB (3%)
Title : VO
Language : Russian
Default : Yes
Forced : No
Menu
00:00:00.000 : en:Chapter 00
00:01:09.560 : en:Chapter 01
00:08:23.600 : en:Chapter 02
00:16:31.080 : en:Chapter 03
00:29:14.319 : en:Chapter 04
00:41:41.880 : en:Chapter 05

ПРИЯТНОГО ПРОСМОТРА!



   Похожие торренты   Торрент   Размер 
В этой теме нет новых непрочитанных сообщений. Что мы знаем про дьявола / The Devil We Know (2011) BDRip 720p

3 | 3

1.38 ГБ

В этой теме нет новых непрочитанных сообщений. Что мы знаем про дьявола / Der Teufel - Die Personifizierung des Bosen / The Devil We Know (2011) BDRip-AVC от Тorrent-Хzona

0 | 3

554.22 МБ

В этой теме нет новых непрочитанных сообщений. Двойник дьявола / The Devil's Double (2011) BDRip 720p от R.G. GoldenShara

8 | 2

2.18 ГБ

В этой теме нет новых непрочитанных сообщений. Двойник дьявола / The Devil's Double (2011) BDRip 720p от HQ-ViDEO

179 | 17

4.81 ГБ

В этой теме нет новых непрочитанных сообщений. Двойник дьявола / The Devil's Double (2011) BDRip 720p by FFmpeg | Placebo

1 | 3

7.71 ГБ

В этой теме нет новых непрочитанных сообщений. Выход Дьявола / Явление Дьявола / The Devil Rides Out (1967) BDRip 1080p от Freeisland

3 | 6

7.96 ГБ

В этой теме нет новых непрочитанных сообщений. Двойник дьявола / The Devil's Double (2011) BDRip-AVC

26 | 2

1.35 ГБ




Вы не можете начинать темы
Вы не можете отвечать на сообщения
Вы не можете редактировать свои сообщения
Вы не можете удалять свои сообщения
Вы не можете добавлять вложения

Перейти:  
Для Мосгорсуда, Роскомнадзора и рекламодателей: mosgorsud-torrent[собачка]yandex.ru
 Вход
ppkBB3cker v.2 © 2008-2014 @ PPK
[ Time : 0.050s | 16 Queries | GZIP : Off ]

Торрент трекер RUTOR.IN, Не можете зайти на rutor.org? Какой новый адрес рутор? Какое зеркало рутор? Не работает rutor.org и зеркала? Тогда наш торрент специально для вас. Rutor.in неофициальное зеркало rutor. В случае если у Вас заблокирован rutor или вдруг Вы не можете на него зайти, то Вы без труда сможете скачать бесплатно и без рекламы последние новинки кино, игр, сериалов и прочего у нас, на Rutor.in. Не нужно использовать прокси, чтобы зайти на рутор, достаточно воспользоваться нашим ресурсом. Все новые фильмы, игры, сериалы, книги и музыка за 2013 и 2014 годы через торрент бесплатно. Скачивайте фильмы в хорошем качестве, игры для пк, xbox, playstation без регистрации. У нас вы найдете новые Зарубежные сериалы и Русские сериалы 2013, 2014, 2015 годов. Оставайтесь с нами, качайте любимые фильмы, игры, сериалы, книги и музыку.