img image001 image001 image001 image001 image001 image001 image001 image001 image001 image001 image001 image001 image001 image001 image001

Planets Sun Sun Sun
Статистика раздачи
Автор: Снежана | Размер: 500.88 МБ | Добавлен: 27 июл 2013
Раздают: 0    Качают: 2
Скачать торрент
Скачать торрент
Описание торрента

СообщениеДобавлено: 27 июл 2013 

#77

Информация о фильме
Название: Доктор Дж.: Иголка в стоге сена
Оригинальное название: Dr. G: Needle in a naystack
Год выхода: 2005
Жанр: документальный, медицина, расследование
Производство: atlasmedia.tv
Страна: США
Продолжительность программы: 00:44:40
Перевод: профессиональный, одноголосый

Описание серии:
1. 27 - мь лет, мужчина неожиданно умирает за ланчем. Но когда доктор Дж. провела вскрытие, она сделала одно из наиболее шокирующих открытий в своей 20 - ти летней карьере...
2. Джек Портер исчез на 5 - ть дней пока его соседка не обнаружила ужасную находку: труп в его незапертом доме... Сможет ли доктор Дж. установить причину смерти, ведь тело сильно разложилось ?!

Разрушенные жизни, медицинские загадки, шокирующие открытия...
С этими случаями ежедневно сталкивается патологоанатом доктор Дж. (Dr.G) !!!
Файл
Кодек: X264
Качество: SATRip
Видео: 640x480, 25 к/с, 4:3, 1500 кбит/с
Звук: AAC(LC), 64 кбит/с, CBR, 44.1 кгц, стерео

Format : MPEG-4
Format profile : Base Media
Codec ID : isom
File size : 501 MiB
Duration : 44mn 39s
Overall bit rate mode : Variable
Overall bit rate : 1 568 Kbps
Encoded date : UTC 2013-04-06 12:28:41
Tagged date : UTC 2013-04-06 12:28:41
Writing application : My MP4Box GUI 0.5.5.4

Video
ID : 1
Format : AVC
Format/Info : Advanced Video Codec
Format profile : High@L3.0
Format settings, CABAC : Yes
Format settings, ReFrames : 4 frames
Codec ID : avc1
Codec ID/Info : Advanced Video Coding
Duration : 44mn 39s
Bit rate : 1 500 Kbps
Maximum bit rate : 6 327 Kbps
Width : 640 pixels
Height : 480 pixels
Display aspect ratio : 4:3
Original display aspect ratio : 4:3
Frame rate mode : Constant
Frame rate : 25.000 fps
Color space : YUV
Chroma subsampling : 4:2:0
Bit depth : 8 bits
Scan type : Progressive
Bits/(Pixel*Frame) : 0.195
Stream size : 479 MiB (96%)
Title : Video
Writing library : x264 core 119 r2106 07efeb4
Encoding settings : cabac=1 / ref=3 / deblock=1:0:0 / analyse=0x3:0x113 / me=hex / subme=7 / psy=1 / psy_rd=1.00:0.00 / mixed_ref=1 / me_range=16 / chroma_me=1 / trellis=1 / 8x8dct=1 / cqm=0 / deadzone=21,11 / fast_pskip=1 / chroma_qp_offset=-2 / threads=6 / sliced_threads=0 / nr=0 / decimate=1 / interlaced=0 / bluray_compat=0 / constrained_intra=0 / bframes=3 / b_pyramid=2 / b_adapt=1 / b_bias=0 / direct=1 / weightb=1 / open_gop=0 / weightp=2 / keyint=250 / keyint_min=25 / scenecut=40 / intra_refresh=0 / rc_lookahead=40 / rc=2pass / mbtree=1 / bitrate=1500 / ratetol=1.0 / qcomp=0.60 / qpmin=0 / qpmax=69 / qpstep=4 / cplxblur=20.0 / qblur=0.5 / ip_ratio=1.40 / aq=1:1.00
Encoded date : UTC 2013-04-07 12:22:54
Tagged date : UTC 2013-04-06 12:28:45

Audio
ID : 2
Format : AAC
Format/Info : Advanced Audio Codec
Format profile : LC
Codec ID : 40
Duration : 44mn 39s
Bit rate mode : Variable
Bit rate : 64.0 Kbps
Maximum bit rate : 73.7 Kbps
Channel(s) : 2 channels
Channel positions : Front: L R
Sampling rate : 44.1 KHz
Compression mode : Lossy
Delay relative to video : 80ms
Stream size : 20.4 MiB (4%)
Language : Russian
Encoded date : UTC 2013-04-06 12:28:45
Tagged date : UTC 2013-04-06 12:28:45




   Похожие торренты   Торрент   Размер 
В этой теме нет новых непрочитанных сообщений. Доктор Дж.: Медицинское расследование / Dr. G: Medical Examiner [06x01-06 из 06] (2010) TVRip от Files-x

0 | 3

3.63 ГБ

В этой теме нет новых непрочитанных сообщений. Доктор Дж.: Медицинское расследование / Dr. G: Medical Examiner [05x01-11 из 14] (2008) TVRip от Files-x

0 | 4

6.66 ГБ

В этой теме нет новых непрочитанных сообщений. Медицинское расследование / Medical Investigation [01x01 из 20] (2004-2005) SATRip от R.G.Resident | CBS Drama

7 | 1

550.5 МБ

В этой теме нет новых непрочитанных сообщений. Медицинское расследование / Medical Investigation [S01] (2004-2005) HDTVRip | P

139 | 4

7.6 ГБ

В этой теме нет новых непрочитанных сообщений. Судмедэксперт Цинь Мин / Medical Examiner Dr. Qin [01-01 из 20] (2016) WEBRip 1080p | L

41 | 4

561.36 МБ

В этой теме нет новых непрочитанных сообщений. Медицинское Майами / Miami Medical [S01] (2010) HDTVRip

125 | 3

4.27 ГБ

В этой теме нет новых непрочитанных сообщений. Криминалисты / Forensic Files (Medical Detectives) (2001-2010) SATRip, IPTVRip

8 | 7

46.12 ГБ




Вы не можете начинать темы
Вы не можете отвечать на сообщения
Вы не можете редактировать свои сообщения
Вы не можете удалять свои сообщения
Вы не можете добавлять вложения

Перейти:  
Для Мосгорсуда, Роскомнадзора и рекламодателей: mosgorsud-torrent[собачка]yandex.ru
 Вход
ppkBB3cker v.2 © 2008-2014 @ PPK
[ Time : 0.045s | 14 Queries | GZIP : Off ]

Торрент трекер RUTOR.IN, Не можете зайти на rutor.org? Какой новый адрес рутор? Какое зеркало рутор? Не работает rutor.org и зеркала? Тогда наш торрент специально для вас. Rutor.in неофициальное зеркало rutor. В случае если у Вас заблокирован rutor или вдруг Вы не можете на него зайти, то Вы без труда сможете скачать бесплатно и без рекламы последние новинки кино, игр, сериалов и прочего у нас, на Rutor.in. Не нужно использовать прокси, чтобы зайти на рутор, достаточно воспользоваться нашим ресурсом. Все новые фильмы, игры, сериалы, книги и музыка за 2013 и 2014 годы через торрент бесплатно. Скачивайте фильмы в хорошем качестве, игры для пк, xbox, playstation без регистрации. У нас вы найдете новые Зарубежные сериалы и Русские сериалы 2013, 2014, 2015 годов. Оставайтесь с нами, качайте любимые фильмы, игры, сериалы, книги и музыку.