img image001 image001 image001 image001 image001 image001 image001 image001 image001 image001 image001 image001 image001 image001 image001

Planets Sun Sun Sun
Статистика раздачи
Автор: Снежана | Размер: 498.08 МБ | Добавлен: 27 июл 2013
Раздают: 1    Качают: 2
Скачать торрент
Скачать торрент
Описание торрента

СообщениеДобавлено: 27 июл 2013 



Название: Ягуар: пожиратель душ
Оригинальное название: Jaguar: Eater of Souls
Год выхода: 1999
Жанр: Документальный
Режиссер: Джейми Макферсон


Ливневые леса Амазонки - последнее прибежище для ягуара, самого большого представителя кошачьих в мире. Для местного индейского племени матис ягуар издревле является тотемным животным. Они поклоняются и подражают ему, учатся у него и они же его... убивают, называя "Пожирателем душ".
Оператору Нику Гордону удалось снять экзотический ритуал племени матис: в стремлении походить на ягуара они прокалывают щеки тонкими деревянными палочками и, таким образом, имитируют кошачьи усы!


Страна: Великобритания
Студия: Survival Anglia, National Geographic Television Production
Продолжительность: 00:50:36
Перевод: Профессиональный одноголосый


Качество: VHSRip
Видео: 640x480 (1.33:1), 25 fps, XviD MPEG-4 ~1196 kbps avg, 0.51 bit/pixel
Звук: 32 kHz, AC3 Dolby Digital, 1 ch, ~96.00 kbps avg
Субтитры: Нет



Формат : AVI
Формат/Информация : Audio Video Interleave
Размер файла : 498 Мбайт
Продолжительность : 50 м.
Общий поток : 1376 Кбит/сек

Видео
Идентификатор : 0
Формат : MPEG-4 Visual
Профиль формата : Advanced Simple@L5
Параметр BVOP формата : 2
Параметр QPel формата : Нет
Параметр GMC формата : Без точки перехода
Параметр матрицы формата : Default (H.263)
Режим смешивания : Сжатый битовый поток
Идентификатор кодека : XVID
Идентификатор кодека/Подсказка : XviD
Продолжительность : 50 м.
Битрейт : 1196 Кбит/сек
Ширина : 640 пикселей
Высота : 480 пикселей
Соотношение сторон : 4:3
Частота кадров : 25,000 кадров/сек
Цветовое пространство : YUV
Субдискретизация насыщенности : 4:2:0
Битовая глубина : 8 бит
Тип развёртки : Прогрессивная
Метод сжатия : С потерями
Бит/(Пиксели*Кадры) : 0.156
Размер потока : 433 Мбайт (87%)
Библиотека кодирования : XviD 1.0.3 (UTC 2004-12-20)

Аудио
Идентификатор : 1
Формат : AC-3
Формат/Информация : Audio Coding 3
Расширение режима : CM (complete main)
Параметр Endianness формата : Big
Идентификатор кодека : 2000
Продолжительность : 50 м.
Вид битрейта : Постоянный
Битрейт : 96,0 Кбит/сек
Каналы : 1 канал
Расположение каналов : Front: C
Частота : 32,0 КГц
Битовая глубина : 16 бит
Метод сжатия : С потерями
Размер потока : 34,7 Мбайт (7%)
Выравнивание : Соединение по промежуткам
Продолжительность промежутка : 250 мс. (6,25 видеокадров)
Время предзагрузки промежутка : 240 мс.









   Похожие торренты   Торрент   Размер 
В этой теме нет новых непрочитанных сообщений. Эйми и Ягуар / Aimée und Jaguar (1999) DVDRip

16 | 4

1.39 ГБ

В этой теме нет новых непрочитанных сообщений. Ягуар / Le Jaguar (1996) DVDRip

118 | 8

1.51 ГБ

В этой теме нет новых непрочитанных сообщений. Ягуар / Le jaguar (1996) HDTVRip-AVC

107 | 9

2.71 ГБ

В этой теме нет новых непрочитанных сообщений. Ягуар / Le Jaguar (1996) DVDRip

14 | 5

2.05 ГБ

В этой теме нет новых непрочитанных сообщений. Ягуар / Le Jaguar (1996) HDTVRip 720p | P

211 | 25

3.91 ГБ

В этой теме нет новых непрочитанных сообщений. Мегазаводы: Ягуар XJ / Megafactories: Jaguar XJ (2011) HDTVRip 720p | P1

65 | 15

1.33 ГБ

В этой теме нет новых непрочитанных сообщений. National Geographic : Мегазаводы: Ягуар-XJ / Megafactories: Jaguar XJ (2011) SATRip by Alex Smit

1 | 4

651.33 МБ




Вы не можете начинать темы
Вы не можете отвечать на сообщения
Вы не можете редактировать свои сообщения
Вы не можете удалять свои сообщения
Вы не можете добавлять вложения

Перейти:  
Для Мосгорсуда, Роскомнадзора и рекламодателей: mosgorsud-torrent[собачка]yandex.ru
 Вход
ppkBB3cker v.2 © 2008-2014 @ PPK
[ Time : 0.696s | 14 Queries | GZIP : On ]

Торрент трекер RUTOR.IN, Не можете зайти на rutor.org? Какой новый адрес рутор? Какое зеркало рутор? Не работает rutor.org и зеркала? Тогда наш торрент специально для вас. Rutor.in неофициальное зеркало rutor. В случае если у Вас заблокирован rutor или вдруг Вы не можете на него зайти, то Вы без труда сможете скачать бесплатно и без рекламы последние новинки кино, игр, сериалов и прочего у нас, на Rutor.in. Не нужно использовать прокси, чтобы зайти на рутор, достаточно воспользоваться нашим ресурсом. Все новые фильмы, игры, сериалы, книги и музыка за 2013 и 2014 годы через торрент бесплатно. Скачивайте фильмы в хорошем качестве, игры для пк, xbox, playstation без регистрации. У нас вы найдете новые Зарубежные сериалы и Русские сериалы 2013, 2014, 2015 годов. Оставайтесь с нами, качайте любимые фильмы, игры, сериалы, книги и музыку.