img image001 image001 image001 image001 image001 image001 image001 image001 image001 image001 image001 image001 image001 image001 image001

Planets Sun Sun Sun
Статистика раздачи
Автор: Снежана | Размер: 2.73 ГБ | Добавлен: 27 июл 2013
Раздают: 0    Качают: 1
Скачать торрент
Скачать торрент
Описание торрента

СообщениеДобавлено: 27 июл 2013 

Что? Где? Когда? - Весенняя серия игр 2013 года


Год выпуска: 2013
Страна: Россия
Жанр: Интеллектуальная игра
Продолжительность: в скринлисте
Перевод: Не требуется
Режиссер: Борис Крюк
Описание: Популярнейшая командная интеллектуальная игра. В элитарном телевизионном казино игроки-знатоки зарабатывают деньги своим умом, отвечая на вопросы телезрителей. Проводятся летние и зимние игры. В эфире с 1975 года. За четверть века перед глазами телезрителей прошло более 170 игр. Сначала программа обосновалась в баре телецентра в Останкино и провела там 7 лет (с 1975 по 1982 гг.), затем переехала на улицу Герцена, д. 47 (с 1983 по 1986 гг.), потом были три прямых эфира из Болгарии в 1987 г., Центр Международной Торговли на Красной Пресне в 1988-1989 гг., и наконец, Охотничий домик в Нескучном саду, где она обитает по сегодняшний день. Сейчас на адрес Телекомпании "Игра" приходит по 150000-200000 вопросов в месяц. После обработки и проверки остается в среднем 75 вопросов в год. Каждую игру на столе находится 12 вопросов. Всего за 25 лет было задано 1514 вопросов. В играх клуба приняли участие 168 мужчин и 59 женщин. Всего через клуб прошло 227 знатоков, из них 41 иностранных. Лучшие были награждены призом "Хрустальная сова".
Качество: SATRip
Формат: AVI
Видео кодек: DivX
Аудио кодек: MP3
Видео: 720x400 (1.80:1), 25 fps, DivX Codec 6.8.5/6.9.1 ~1499 kbps avg
Аудио: 48 kHz, MPEG Layer 3, 2 ch, ~128.00 kbps avg
ИГРА 1

Команда Алеся Мухина
1. Илья Новиков
2. Григорий Алхазов
3. Анатолий Бугаев
4. Гюнель Бабаева
5. Эльман Талыбов
6. Алесь Мухин

ИГРА 2

Команда Алёны Повышевой
1. Владимир Кукарских
2. Александр Никольский
3. Алексей Самулёв
4. Владимир Улахович
5. Павел Чернявский
6. Алёна Повышева

ИГРА 3

Команда Андрея Козлова
1. Максим Поташев
2. Алексей Капустин
3. Михаил Мун
4. Владимир Степанов
5. Елена Александрова
6. Андрей Козлов

ИГРА 4

Команда Виктора Сиднева
1. Александр Друзь
2. Борис Левин
3. Леонид Тимофеев
4. Леонид Климович
5. Михаил Дюба
6. Виктор Сиднев

Общее
Полное имя : D:РаздачиЧтоГдеКогда - Весенняя Серия 2013 SATRipЧтоГдеКогда Весення серия 2013 года - Игра первая SATRip.avi
Формат : AVI
Формат/Информация : Audio Video Interleave
Размер файла : 549 Мбайт
Продолжительность : 46 м.
Общий поток : 1637 Кбит/сек
Программа кодирования : VirtualDubMod 1.5.10.2 (build 2540/release)
Библиотека кодирования : VirtualDub build 32507/release

Видео
Идентификатор : 0
Формат : MPEG-4 Visual
Параметр BVOP формата : 1
Параметр QPel формата : Нет
Параметр GMC формата : Без точки перехода
Параметр матрицы формата : Default (H.263)
Режим смешивания : Сжатый битовый поток
Идентификатор кодека : DX50
Идентификатор кодека/Подсказка : DivX 5
Продолжительность : 46 м.
Битрейт : 1499 Кбит/сек
Ширина : 720 пикселей
Высота : 400 пикселей
Соотношение сторон : 16:9
Частота кадров : 25,000 кадров/сек
Цветовое пространство : YUV
Субдискретизация насыщенности : 4:2:0
Битовая глубина : 8 бит
Тип развёртки : Прогрессивная
Метод сжатия : С потерями
Бит/(Пиксели*Кадры) : 0.208
Размер потока : 503 Мбайт (92%)
Библиотека кодирования : DivX 6.8.5 (UTC 2009-08-20)

Аудио
Идентификатор : 1
Формат : MPEG Audio
Версия формата : Version 1
Профиль формата : Layer 3
Режим : Joint stereo
Идентификатор кодека : 55
Идентификатор кодека/Подсказка : MP3
Продолжительность : 46 м.
Вид битрейта : Постоянный
Битрейт : 128 Кбит/сек
Каналы : 2 канала
Частота : 48,0 КГц
Метод сжатия : С потерями
Размер потока : 43,0 Мбайт (8%)
Выравнивание : Соединение по промежуткам
Продолжительность промежутка : 40 мс. (1,00 видеокадр)
Время предзагрузки промежутка : 504 мс.



   Похожие торренты   Торрент   Размер 
В этой теме нет новых непрочитанных сообщений. Что? Где? Когда? Весенняя серия. Игра первая [эфир от 06.04] (2013) SATRip

0 | 5

551.22 МБ

В этой теме нет новых непрочитанных сообщений. Что? Где? Когда? Весенняя серия. Игра вторая [эфир от 13.04] (2013) SATRip

0 | 1

650.34 МБ

В этой теме нет новых непрочитанных сообщений. Что? Где? Когда? - Весенняя серия [01-03] (2010) SATRip

0 | 6

1.48 ГБ

В этой теме нет новых непрочитанных сообщений. Что? Где? Когда? Весенняя серия. Первая игра (2011) SATRip

3 | 2

718.69 МБ

В этой теме нет новых непрочитанных сообщений. Что? Где? Когда? Весенняя серия. Четвертая игра (2010) SATRip

0 | 5

701.57 МБ

В этой теме нет новых непрочитанных сообщений. Что? Где? Когда? Весенняя серия. Игра третья [Эфир 04.04] (2015) SATRip

162 | 5

895.02 МБ

В этой теме нет новых непрочитанных сообщений. Что? Где? Когда? Весенняя серия. Игра четвертая [Эфир 18.04] (2015) SATRip от GeneralFilm

360 | 14

714.46 МБ




Вы не можете начинать темы
Вы не можете отвечать на сообщения
Вы не можете редактировать свои сообщения
Вы не можете удалять свои сообщения
Вы не можете добавлять вложения

Перейти:  
Для Мосгорсуда, Роскомнадзора и рекламодателей: mosgorsud-torrent[собачка]yandex.ru
 Вход
ppkBB3cker v.2 © 2008-2014 @ PPK
[ Time : 0.026s | 14 Queries | GZIP : Off ]

Торрент трекер RUTOR.IN, Не можете зайти на rutor.org? Какой новый адрес рутор? Какое зеркало рутор? Не работает rutor.org и зеркала? Тогда наш торрент специально для вас. Rutor.in неофициальное зеркало rutor. В случае если у Вас заблокирован rutor или вдруг Вы не можете на него зайти, то Вы без труда сможете скачать бесплатно и без рекламы последние новинки кино, игр, сериалов и прочего у нас, на Rutor.in. Не нужно использовать прокси, чтобы зайти на рутор, достаточно воспользоваться нашим ресурсом. Все новые фильмы, игры, сериалы, книги и музыка за 2013 и 2014 годы через торрент бесплатно. Скачивайте фильмы в хорошем качестве, игры для пк, xbox, playstation без регистрации. У нас вы найдете новые Зарубежные сериалы и Русские сериалы 2013, 2014, 2015 годов. Оставайтесь с нами, качайте любимые фильмы, игры, сериалы, книги и музыку.