img image001 image001 image001 image001 image001 image001 image001 image001 image001 image001 image001 image001 image001 image001 image001

Planets Sun Sun Sun
Статистика раздачи
Автор: Снежана | Размер: 40.05 ГБ | Добавлен: 27 июл 2013
Раздают: 0    Качают: 3
Скачать торрент
Скачать торрент
Описание торрента

СообщениеДобавлено: 27 июл 2013 

Большие танцы. Выпуск 01-08

Год выпуска: 2013
Страна: Россия
Жанр: Тв-шоу
Продолжительность: 8 х 01:50:00
Перевод: Не требуется
Русские субтитры: нет

Описание: В шоу примут участие только те, кто по-настоящему любит и умеет танцевать. В восьми крупнейших городах страны будут отобраны команды по сто человек. После подготовки и репетиций они отправятся на генеральное танцевальное сражение в Москву. Под руководством главного хореографа участники проекта подготовят современные, динамичные, масштабные номера. Зрителей ждет потрясающее зрелище: ВОСЕМЬ недель ВОСЕМЬ команд по СТО человек будут танцевать hip-hop, breakdance, housedance, r&b, rock'n'roll, jazzdance! По субботам команды двух городов, которые определит жребий, будут встречаться в батле, состоящем из трех этапов. И каждый раз одна команда будет покидать проект. Оценки командам будет выставлять жюри, но их судьба зависит и от телезрителей. С помощью смс-голосования и телефонных звонков любой житель России сможет проголосовать за город, чье выступление понравилось больше всего. Главный хореограф-постановщик проекта Пол Домейн (работал с Джорджем Майклом, Тиной Тернер, Шер, Кайли Миноуг; главный постановщик в Европе популярных шоу Voice, "Танцы со звездами", X-factor, World Music Awards и др.). Он лично выберет по одному хореографу из каждого города, поможет им отобрать участников для шоу.

Ведущие: Федор Бондарчук, Альбина Джанабаева, Наталья Стефаненко

Доп. информация: Релиз -


Рип чистый. Без посторонних надписей. Выкладывается как есть.

Качество: DVB
Формат: MPG
Видео кодек: MPG2
Аудио кодек: MP2
Видео: 720x576 @ 768x576 (4:3) 25.00fps 5 805 Kbps, 0.560 bit/pixel
Аудио: MPEG Audio 48000Hz mono 192 Кбит/сек





GeneralComplete name : N:ВЫКЛАДКАDVBРазвлеченияБольшие танцы. Первый сезон (2013, Тв-шоу, DVB) (MYDIMKA)\01 выпуск.mpgFormat : MPEG-PSFile size : 5.03 GiBDuration : 1h 57mnOverall bit rate mode : VariableOverall bit rate : 6 118 Kbps

VideoID : 224 (0xE0)Format : MPEG VideoFormat version : Version 2Format profile : Main@MainFormat settings, BVOP : YesFormat settings, Matrix : CustomFormat settings, GOP : VariableDuration : 1h 57mnBit rate mode : VariableBit rate : 5 804 KbpsMaximum bit rate : 15.0 MbpsWidth : 720 pixelsHeight : 576 pixelsDisplay aspect ratio : 4:3Frame rate : 25.000 fpsStandard : PALColor space : YUVChroma subsampling : 4:2:0Bit depth : 8 bitsScan type : InterlacedScan order : Top Field FirstCompression mode : LossyBits/(Pixel*Frame) : 0.560Stream size : 4.77 GiB (95%)

AudioID : 192 (0xC0)Format : MPEG AudioFormat version : Version 1Format profile : Layer 2Duration : 1h 57mnBit rate mode : ConstantBit rate : 192 KbpsChannel(s) : 2 channelsSampling rate : 48.0 KHzCompression mode : LossyDelay relative to video : -14msStream size : 162 MiB (3%)


Внимание! Раздача ведётся путём добавления новых выпусков; при каждом добавлении создётся новый торрент. Чтобы начать докачку нового выпуска, пользователям необходимо сделать следующее:
(1) остановить скачивание,
(2) удалить старый торрент у себя из клиента (старые выпуски удалять не надо),
(3) скачать новый торрент и запустить его у себя в клиенте вместо старого, при этом указать клиенту путь в старую папку куда и должно происходить скачивание новых выпусков.
Ваш клиент при этом должен произвести хеширование (проверку) старой папки (если не производит сам - помогите ему сделать это), и будет докачивать только те выпуски которых у вас ещё нет. Старые выпуски при этом не удаляются, а продолжают раздаваться!
Eсли вы уже удалили старые выпуски, то предотвратить повторную закачку старых выпусков можно, отжав галочку в соответсвующих местах при запуске нового торрента. По возможности, желательно не удалять старые выпуски как можно дольше чтобы релизёр не столько продолжал раздавать старые выпуски, а смог сконцентрироваться на новых.



   Похожие торренты   Торрент   Размер 
В этой теме нет новых непрочитанных сообщений. Большие танцы [01х01-09] (2013) HDTVRip

2 | 12

17.35 ГБ

В этой теме нет новых непрочитанных сообщений. Большие танцы [01х01-08] (2013) HDTV 1080i

0 | 3

56.68 ГБ

В этой теме нет новых непрочитанных сообщений. Большие танцы. Крупным планом [01х01] (2013) SATRip

0 | 2

1.91 ГБ

В этой теме нет новых непрочитанных сообщений. Танцы на грани / Танцы на краю / Dancing on the Edge [S01] (2013) HDTVRip | Baibako

4 | 3

4.39 ГБ

В этой теме нет новых непрочитанных сообщений. Танцы на краю/ Танцы на грани / Dancing on the Edge [01x01-05 из 05] (2013) HDTVRip-AVC 1080p l BaibaKo

1 | 6

11.73 ГБ

В этой теме нет новых непрочитанных сообщений. Танцы на грани / Танцы на краю / Dancing on the Edge [S01 + Спецэпизод] (2013) HDTVRip 720р, PDTVRip | Baibako

0 | 2

7.3 ГБ

В этой теме нет новых непрочитанных сообщений. Танцы со звездами. Сезон 2013. [Выпуск 01] (2013) HDTV 1080i от MediaClub

0 | 5

13.11 ГБ




Вы не можете начинать темы
Вы не можете отвечать на сообщения
Вы не можете редактировать свои сообщения
Вы не можете удалять свои сообщения
Вы не можете добавлять вложения

Перейти:  
Для Мосгорсуда, Роскомнадзора и рекламодателей: mosgorsud-torrent[собачка]yandex.ru
 Вход
ppkBB3cker v.2 © 2008-2014 @ PPK
[ Time : 0.596s | 14 Queries | GZIP : On ]

Торрент трекер RUTOR.IN, Не можете зайти на rutor.org? Какой новый адрес рутор? Какое зеркало рутор? Не работает rutor.org и зеркала? Тогда наш торрент специально для вас. Rutor.in неофициальное зеркало rutor. В случае если у Вас заблокирован rutor или вдруг Вы не можете на него зайти, то Вы без труда сможете скачать бесплатно и без рекламы последние новинки кино, игр, сериалов и прочего у нас, на Rutor.in. Не нужно использовать прокси, чтобы зайти на рутор, достаточно воспользоваться нашим ресурсом. Все новые фильмы, игры, сериалы, книги и музыка за 2013 и 2014 годы через торрент бесплатно. Скачивайте фильмы в хорошем качестве, игры для пк, xbox, playstation без регистрации. У нас вы найдете новые Зарубежные сериалы и Русские сериалы 2013, 2014, 2015 годов. Оставайтесь с нами, качайте любимые фильмы, игры, сериалы, книги и музыку.