img image001 image001 image001 image001 image001 image001 image001 image001 image001 image001 image001 image001 image001 image001 image001

Planets Sun Sun Sun
Статистика раздачи
Автор: Снежана | Размер: 51.09 ГБ | Добавлен: 26 июл 2013
Раздают: 2    Качают: 9
Скачать торрент
Скачать торрент
Описание торрента

СообщениеДобавлено: 26 июл 2013 

#77


Жанр: Reality-Show
Год выпуска: 2012

Продолжительность: 43:00 x 16 + 1:26:00 x 16 ~ 1d 10h
Перевод: не требуется
Субтитры: Английские

Описание. Состязание не похожее ни на одно другое шоу. Здесь все основывается исключительно на голосе. Блэйк Шелтон, Кристина Агилера, Си Ло Грин и Адам Левин собрались вместе, чтобы открыть новый голос Америки.
Третий сезон шоу состоит из нескольких этапов. Традиционная вступительная часть - The Blind Auditions, далее - The Battles с интересным нововведением Steal, новый раунд противостояний The Knockouts, и, как всегда великолепные, The Live Shows, в которых принимают участие по пять оставшихся человек из каждой команды. А победители последних на этот раз выбираются исключительно народным голосованием.

Дополнительно.
Русские субтитры на некоторые серии можно найти здесь - http://notabenoid.com/book/32711

Источник: Сеть
Качество: HDTV 720p
Контейнер: MKV
Видео кодек: H.264
Аудио кодек: AC3
Видео: MPEG-4 AVC / 1280x720 / 3 218 Kbps / 29.970 fps
Аудио: AC3 / 384 Kbps / 48000Hz / 6ch

General
Unique ID : 142967187944182846863099038827026075494 (0x6B8E7A94C6DD0029EDFD801B8CB84F66)
Complete name : D:Films!! SeriesThe VoiceThe Voice (US) - Season 03The Voice - 03x11 - The Battles Premiere, Part 2.mkv
Format : Matroska
Format version : Version 1
File size : 1.12 GiB
Duration : 43mn 27s
Overall bit rate : 3 675 Kbps
Encoded date : UTC 2012-10-10 02:21:09
Writing application : mkvmerge v2.0.2 ('You're My Flame') built on Jul 16 2008 20:03:58
Writing library : libebml v0.7.7 + libmatroska v0.8.1

Video
ID : 1
Format : AVC
Format/Info : Advanced Video Codec
Format profile : High@L4.1
Format settings, CABAC : Yes
Format settings, ReFrames : 5 frames
Codec ID : V_MPEG4/ISO/AVC
Duration : 43mn 27s
Bit rate : 3 218 Kbps
Width : 1 280 pixels
Height : 720 pixels
Display aspect ratio : 16:9
Frame rate mode : Constant
Frame rate : 29.970 fps
Color space : YUV
Chroma subsampling : 4:2:0
Bit depth : 8 bits
Scan type : Progressive
Bits/(Pixel*Frame) : 0.117
Stream size : 1 000 MiB (88%)
Writing library : x264 core 125 r2208 d9d2288
Encoding settings : cabac=1 / ref=5 / deblock=1:0:0 / analyse=0x3:0x113 / me=umh / subme=8 / psy=1 / psy_rd=1.00:0.00 / mixed_ref=1 / me_range=16 / chroma_me=1 / trellis=1 / 8x8dct=1 / cqm=0 / deadzone=21,11 / fast_pskip=1 / chroma_qp_offset=-2 / threads=12 / lookahead_threads=2 / sliced_threads=0 / nr=0 / decimate=1 / interlaced=0 / bluray_compat=0 / constrained_intra=0 / bframes=3 / b_pyramid=2 / b_adapt=2 / b_bias=0 / direct=3 / weightb=1 / open_gop=0 / weightp=2 / keyint=250 / keyint_min=25 / scenecut=40 / intra_refresh=0 / rc_lookahead=50 / rc=crf / mbtree=1 / crf=21.0 / qcomp=0.60 / qpmin=0 / qpmax=69 / qpstep=4 / ip_ratio=1.40 / aq=1:1.00
Language : English
Default : Yes
Forced : No
Matrix coefficients : BT.709

Audio
ID : 2
Format : AC-3
Format/Info : Audio Coding 3
Mode extension : CM (complete main)
Format settings, Endianness : Big
Codec ID : A_AC3
Duration : 43mn 27s
Bit rate mode : Constant
Bit rate : 384 Kbps
Channel(s) : 6 channels
Channel positions : Front: L C R, Side: L R, LFE
Sampling rate : 48.0 KHz
Bit depth : 16 bits
Compression mode : Lossy
Stream size : 119 MiB (10%)
Default : Yes
Forced : No







   Похожие торренты   Торрент   Размер 
В этой теме нет новых непрочитанных сообщений. Голос Америки / The Voice US [04х01-10] (2013) HDTVRip 720p | Sub

9 | 14

15.58 ГБ

В этой теме нет новых непрочитанных сообщений. Голос / Voice (2016) [01 из 16] HDTVRip 720p | L2

0 | 0

2.85 ГБ

В этой теме нет новых непрочитанных сообщений. Голос / Voice (2016) [01 из 16] HDTVRip 720p | L2

0 | 0

1.57 ГБ

В этой теме нет новых непрочитанных сообщений. Голос Британии / The Voice UK [01x01-08] (2012) HDTVRip 720р

0 | 2

8.69 ГБ

В этой теме нет новых непрочитанных сообщений. Голос / Voice / Boiseu [01-06 из 16] (2017) HDTVRip 720p | L2

0 | 0

8.26 ГБ

В этой теме нет новых непрочитанных сообщений. VA - Голос / The Voice [Выпуск 01-13] (2012) MP3

3 | 5

648.95 МБ

В этой теме нет новых непрочитанных сообщений. Голос / The Voice U.S. [S01] (2011) HDTVRip | Субтитры

3 | 2

8.52 ГБ




Вы не можете начинать темы
Вы не можете отвечать на сообщения
Вы не можете редактировать свои сообщения
Вы не можете удалять свои сообщения
Вы не можете добавлять вложения

Перейти:  
Для Мосгорсуда, Роскомнадзора и рекламодателей: mosgorsud-torrent[собачка]yandex.ru
 Вход
ppkBB3cker v.2 © 2008-2014 @ PPK
[ Time : 0.039s | 15 Queries | GZIP : Off ]

cron