img image001 image001 image001 image001 image001 image001 image001 image001 image001 image001 image001 image001 image001 image001 image001

Planets Sun Sun Sun
Статистика раздачи
Автор: Снежана | Размер: 4.23 ГБ | Добавлен: 27 июл 2013
Раздают: 2    Качают: 8
Скачать торрент
Скачать торрент
Описание торрента

СообщениеДобавлено: 27 июл 2013 

#77


Страна: Россия
Жанр: Pop
Продолжительность: 01:38:55
Год выпуска: 2013 г.
Описание: Концерт телеканала "Россия 1" в честь первомайских праздников.

Доп. информация: Релиз -


Рип чистый. Без посторонних надписей. Выкладывается как есть.

Качество: DVB
Формат: MPG
Видео кодек: MPG2
Аудио кодек: MP2
Видео: 720x576 @ 768x576 (4:3) 25.00fps 5 805 Kbps, 0.560 bit/pixel
Аудио: MPEG Audio, 48000Hz, 2 channels, 192 Кбит/сек




GeneralComplete name : J:ВЫКЛАДКАDVB\02 - МУЗЫКАЦветы и песни весны. Праздничный концерт (2013, Pop, Концерт, DVB) (MYDIMKA).mpgFormat : MPEG-PSFile size : 4.23 GiBDuration : 1h 38mnOverall bit rate mode : VariableOverall bit rate : 6 123 KbpsWriting library : (c) 1998-2012 Womble Multimedia, Inc. / MPEG Video Wizard DVD 5.0.1.100 (03/2011) / Sep 22 2012

VideoID : 224 (0xE0)Format : MPEG VideoFormat version : Version 2Format profile : Main@MainFormat settings, BVOP : YesFormat settings, Matrix : CustomFormat settings, GOP : VariableDuration : 1h 38mnBit rate mode : VariableBit rate : 5 809 KbpsMaximum bit rate : 15.0 MbpsWidth : 720 pixelsHeight : 576 pixelsDisplay aspect ratio : 4:3Frame rate : 25.000 fpsStandard : PALColor space : YUVChroma subsampling : 4:2:0Bit depth : 8 bitsScan type : InterlacedScan order : Top Field FirstCompression mode : LossyBits/(Pixel*Frame) : 0.560Time code of first frame : 00:00:00:00Time code source : Group of pictures headerStream size : 4.01 GiB (95%)Writing library : (c) 1998-2012 Womble Multimedia, Inc. / MPEG Video Wizard DVD 5.0.1.100 (03/2011) / Sep 22 2012

AudioID : 192 (0xC0)Format : MPEG AudioFormat version : Version 1Format profile : Layer 2Duration : 1h 38mnBit rate mode : ConstantBit rate : 192 KbpsChannel(s) : 2 channelsSampling rate : 48.0 KHzCompression mode : LossyStream size : 136 MiB (3%)



   Похожие торренты   Торрент   Размер 
В этой теме нет новых непрочитанных сообщений. Цветы и песни весны. Праздничный концерт (2013) HDTVRip

11 | 4

1.45 ГБ

В этой теме нет новых непрочитанных сообщений. Цветы и песни весны. Праздничный концерт (2013) HDTV 1080i

256 | 2

5.83 ГБ

В этой теме нет новых непрочитанных сообщений. Торжественное собрание и праздничный концерт - Цветы Великой Победы [09.05] (2015) DVB-AVC от AND03AND

25 | 21

2.04 ГБ

В этой теме нет новых непрочитанных сообщений. Дмитрий Хворостовский. Большой праздничный концерт - Песни Великой Победы (2015) HDTVRip от Files-x

142 | 9

917.16 МБ

В этой теме нет новых непрочитанных сообщений. Дмитрий Хворостовский. Большой праздничный концерт - Песни Великой Победы (2015) HDTV (1080i) от Files-x

76 | 13

2.84 ГБ

В этой теме нет новых непрочитанных сообщений. Праздничный концерт. Лучшие песни-2010 (2010) SATRip от Кosmos

1 | 67

1.37 ГБ

В этой теме нет новых непрочитанных сообщений. Лучшие песни-2011.Праздничный концерт в Государственном Кремлевском дворце (2011) IPTVRip от KinoZalSat

4 | 15

1.46 ГБ




Вы не можете начинать темы
Вы не можете отвечать на сообщения
Вы не можете редактировать свои сообщения
Вы не можете удалять свои сообщения
Вы не можете добавлять вложения

Перейти:  
Для Мосгорсуда, Роскомнадзора и рекламодателей: mosgorsud-torrent[собачка]yandex.ru
 Вход
ppkBB3cker v.2 © 2008-2014 @ PPK
[ Time : 2.163s | 14 Queries | GZIP : On ]

Торрент трекер RUTOR.IN, Не можете зайти на rutor.org? Какой новый адрес рутор? Какое зеркало рутор? Не работает rutor.org и зеркала? Тогда наш торрент специально для вас. Rutor.in неофициальное зеркало rutor. В случае если у Вас заблокирован rutor или вдруг Вы не можете на него зайти, то Вы без труда сможете скачать бесплатно и без рекламы последние новинки кино, игр, сериалов и прочего у нас, на Rutor.in. Не нужно использовать прокси, чтобы зайти на рутор, достаточно воспользоваться нашим ресурсом. Все новые фильмы, игры, сериалы, книги и музыка за 2013 и 2014 годы через торрент бесплатно. Скачивайте фильмы в хорошем качестве, игры для пк, xbox, playstation без регистрации. У нас вы найдете новые Зарубежные сериалы и Русские сериалы 2013, 2014, 2015 годов. Оставайтесь с нами, качайте любимые фильмы, игры, сериалы, книги и музыку.