img image001 image001 image001 image001 image001 image001 image001 image001 image001 image001 image001 image001 image001 image001 image001

Planets Sun Sun Sun
Статистика раздачи
Автор: Снежана | Размер: 3.61 ГБ | Добавлен: 27 июл 2013
Раздают: 0    Качают: 2
Скачать торрент
Скачать торрент
Описание торрента

СообщениеДобавлено: 27 июл 2013 

Парад Победы. Москва. Красная Площадь

Год выпуска: 2013
Страна: Россия
Студия: ВГТРК, Первый канал
Жанр: Военный парад
Продолжительность: 01:01:04
Перевод: Не требуется
Русские субтитры: нет

Описание: Военный парад в ознаменование 68-й годовщины Победы в Великой Отечественной войне пройдет на Красной площади в Москве. В составе механизированной колонны парадного расчета по брусчатке, как и в прошлом году, пройдут три автономных пусковых установки подвижного грунтового ракетного комплекса "Тополь-М“, а в небе пролетят 68 самолетов и вертолетов ВВС - по числу лет, пошедших с 9 мая 1945 года.

Тип релиза: HDTV 1080i
Контейнер: TS

Источник: собственный рип

Доп. информация: Релиз -


Рип чистый. Без посторонних надписей. Выкладывается как есть.

Видео кодек: AVC
Аудио кодек: AC3
Видео: 1920x1080 (16:9) 25.000 fps 7 858 Kbps, 0.152 bit/pixel
Аудио: MPEG Audio 48000Hz stereo 192 Кбит/сек




GeneralID : 1 (0x1)Complete name : C:Парад Победы. Москва. Красная Площадь (2013, Военный парад, HDTV) (РОссия HD) (MYDIMKA).tsFormat : MPEG-TSFile size : 3.57 GiBDuration : 1h 0mnOverall bit rate mode : VariableOverall bit rate : 8 460 Kbps

VideoID : 2911 (0xB5F)Menu ID : 1 (0x1)Format : AVCFormat/Info : Advanced Video CodecFormat profile : High@L4.0Format settings, CABAC : YesFormat settings, ReFrames : 3 framesCodec ID : 27Duration : 1h 0mnBit rate : 7 848 KbpsWidth : 1 920 pixelsHeight : 1 080 pixelsDisplay aspect ratio : 16:9Frame rate : 25.000 fpsColor space : YUVChroma subsampling : 4:2:0Bit depth : 8 bitsScan type : MBAFFBits/(Pixel*Frame) : 0.151Stream size : 3.32 GiB (93%)

AudioID : 2912 (0xB60)Menu ID : 1 (0x1)Format : MPEG AudioFormat version : Version 1Format profile : Layer 2Mode : Joint stereoMode extension : Intensity Stereo + MS StereoCodec ID : 3Duration : 1h 0mnBit rate mode : ConstantBit rate : 192 KbpsChannel(s) : 2 channelsSampling rate : 48.0 KHzCompression mode : LossyStream size : 83.0 MiB (2%)Language : Russian



   Похожие торренты   Торрент   Размер 
В этой теме нет новых непрочитанных сообщений. Парад Победы. Москва. Красная площадь (2015) HDTV 1080i от GeneralFilm

2969 | 176

7.56 ГБ

В этой теме нет новых непрочитанных сообщений. Парад Победы. Москва. Красная площадь (2016) HDTV 1080i от MediaClub

148 | 8

4.02 ГБ

В этой теме нет новых непрочитанных сообщений. Парад Победы. Москва. Красная площадь (2015) HDTV 1080i от MediaClub

3598 | 322

4.76 ГБ

В этой теме нет новых непрочитанных сообщений. Парад Победы. Москва. Красная площадь (2016) HDTV 1080i от GeneralFilm

288 | 12

4.19 ГБ

В этой теме нет новых непрочитанных сообщений. Парад Победы - Москва. Красная площадь. Парад, посвященный 66-й годовщине Победы (09.05.2011) SATRip от Generalfilm

0 | 4

600.81 МБ

В этой теме нет новых непрочитанных сообщений. Парад Победы. Москва. Красная Площадь (2013) DVB

0 | 2

2.6 ГБ

В этой теме нет новых непрочитанных сообщений. Парад Победы. Москва. Красная Площадь (2013) HDTVRip

6 | 6

977.92 МБ




Вы не можете начинать темы
Вы не можете отвечать на сообщения
Вы не можете редактировать свои сообщения
Вы не можете удалять свои сообщения
Вы не можете добавлять вложения

Перейти:  
Для Мосгорсуда, Роскомнадзора и рекламодателей: mosgorsud-torrent[собачка]yandex.ru
 Вход
ppkBB3cker v.2 © 2008-2014 @ PPK
[ Time : 0.076s | 14 Queries | GZIP : Off ]

Торрент трекер RUTOR.IN, Не можете зайти на rutor.org? Какой новый адрес рутор? Какое зеркало рутор? Не работает rutor.org и зеркала? Тогда наш торрент специально для вас. Rutor.in неофициальное зеркало rutor. В случае если у Вас заблокирован rutor или вдруг Вы не можете на него зайти, то Вы без труда сможете скачать бесплатно и без рекламы последние новинки кино, игр, сериалов и прочего у нас, на Rutor.in. Не нужно использовать прокси, чтобы зайти на рутор, достаточно воспользоваться нашим ресурсом. Все новые фильмы, игры, сериалы, книги и музыка за 2013 и 2014 годы через торрент бесплатно. Скачивайте фильмы в хорошем качестве, игры для пк, xbox, playstation без регистрации. У нас вы найдете новые Зарубежные сериалы и Русские сериалы 2013, 2014, 2015 годов. Оставайтесь с нами, качайте любимые фильмы, игры, сериалы, книги и музыку.