img image001 image001 image001 image001 image001 image001 image001 image001 image001 image001 image001 image001 image001 image001 image001

Planets Sun Sun Sun
Статистика раздачи
Автор: Снежана | Размер: 2.6 ГБ | Добавлен: 27 июл 2013
Раздают: 0    Качают: 2
Скачать торрент
Скачать торрент
Описание торрента

СообщениеДобавлено: 27 июл 2013 

Парад Победы. Москва. Красная Площадь

Год выпуска: 2013
Страна: Россия
Студия: ВГТРК, Первый канал
Жанр: Военный парад
Продолжительность: 01:00:54
Перевод: Не требуется
Русские субтитры: нет

Описание: Военный парад в ознаменование 68-й годовщины Победы в Великой Отечественной войне пройдет на Красной площади в Москве. В составе механизированной колонны парадного расчета по брусчатке, как и в прошлом году, пройдут три автономных пусковых установки подвижного грунтового ракетного комплекса "Тополь-М“, а в небе пролетят 68 самолетов и вертолетов ВВС - по числу лет, пошедших с 9 мая 1945 года.

Источник: собственный рип

Доп. информация: Релиз -


Рип чистый. Без посторонних надписей. Выкладывается как есть.

Качество: DVB
Формат: MPG
Видео кодек: MPG2
Аудио кодек: MP2
Видео: 720x576 @ 1024x576 (16:9) 25.00fps 5 810 Kbps, 0.560 bit/pixel
Аудио: MPEG Audio 48000Hz stereo 192 Кбит/сек 2 channels




GeneralComplete name : C:Парад Победы. Москва. Красная Площадь (2013, Военный парад, DVB) (Россия 1) (MYDIMKA).mpgFormat : MPEG-PSFile size : 2.60 GiBDuration : 1h 0mnOverall bit rate mode : VariableOverall bit rate : 6 118 Kbps

VideoID : 224 (0xE0)Format : MPEG VideoFormat version : Version 2Format profile : Main@MainFormat settings, BVOP : YesFormat settings, Matrix : CustomFormat settings, GOP : M=3, N=36Duration : 1h 0mnBit rate mode : VariableBit rate : 5 804 KbpsMaximum bit rate : 15.0 MbpsWidth : 720 pixelsHeight : 576 pixelsDisplay aspect ratio : 4:3Frame rate : 25.000 fpsStandard : PALColor space : YUVChroma subsampling : 4:2:0Bit depth : 8 bitsScan type : InterlacedScan order : Top Field FirstCompression mode : LossyBits/(Pixel*Frame) : 0.560Time code of first frame : 00:00:00:00Time code source : Group of pictures headerStream size : 2.47 GiB (95%)

AudioID : 192 (0xC0)Format : MPEG AudioFormat version : Version 1Format profile : Layer 2Duration : 1h 0mnBit rate mode : ConstantBit rate : 192 KbpsChannel(s) : 2 channelsSampling rate : 48.0 KHzCompression mode : LossyDelay relative to video : -22msStream size : 83.6 MiB (3%)



   Похожие торренты   Торрент   Размер 
В этой теме нет новых непрочитанных сообщений. Парад Победы - Москва. Красная площадь. Парад, посвященный 66-й годовщине Победы (09.05.2011) SATRip от Generalfilm

0 | 4

600.81 МБ

В этой теме нет новых непрочитанных сообщений. Парад Победы. Москва. Красная Площадь (2013) HDTVRip

6 | 6

977.92 МБ

В этой теме нет новых непрочитанных сообщений. Парад Победы. Москва. Красная Площадь (2013) HDTV 1080i

0 | 2

3.61 ГБ

В этой теме нет новых непрочитанных сообщений. Парад Победы. Москва. Красная Площадь (2012) SATRip

2 | 2

861.2 МБ

В этой теме нет новых непрочитанных сообщений. Парад Победы. Москва. Красная Площадь (2011) IPTV

4 | 4

1.96 ГБ

В этой теме нет новых непрочитанных сообщений. Парад Победы. Москва. Красная Площадь (2016) HDTVRip-AVC

0 | 0

813.04 МБ

В этой теме нет новых непрочитанных сообщений. Парад Победы. Москва. Красная площадь (2016) HDTVRip

7 | 0

817.95 МБ




Вы не можете начинать темы
Вы не можете отвечать на сообщения
Вы не можете редактировать свои сообщения
Вы не можете удалять свои сообщения
Вы не можете добавлять вложения

Перейти:  
Для Мосгорсуда, Роскомнадзора и рекламодателей: mosgorsud-torrent[собачка]yandex.ru
 Вход
ppkBB3cker v.2 © 2008-2014 @ PPK
[ Time : 0.076s | 14 Queries | GZIP : Off ]

Торрент трекер RUTOR.IN, Не можете зайти на rutor.org? Какой новый адрес рутор? Какое зеркало рутор? Не работает rutor.org и зеркала? Тогда наш торрент специально для вас. Rutor.in неофициальное зеркало rutor. В случае если у Вас заблокирован rutor или вдруг Вы не можете на него зайти, то Вы без труда сможете скачать бесплатно и без рекламы последние новинки кино, игр, сериалов и прочего у нас, на Rutor.in. Не нужно использовать прокси, чтобы зайти на рутор, достаточно воспользоваться нашим ресурсом. Все новые фильмы, игры, сериалы, книги и музыка за 2013 и 2014 годы через торрент бесплатно. Скачивайте фильмы в хорошем качестве, игры для пк, xbox, playstation без регистрации. У нас вы найдете новые Зарубежные сериалы и Русские сериалы 2013, 2014, 2015 годов. Оставайтесь с нами, качайте любимые фильмы, игры, сериалы, книги и музыку.