img image001 image001 image001 image001 image001 image001 image001 image001 image001 image001 image001 image001 image001 image001 image001

Planets Sun Sun Sun
Статистика раздачи
Автор: Снежана | Размер: 2.28 ГБ | Добавлен: 27 июл 2013
Раздают: 0    Качают: 2
Скачать торрент
Скачать торрент
Описание торрента

СообщениеДобавлено: 27 июл 2013 

Парад Победы в Харькове на Площади Свободы

Год выпуска: 2013
Производство: Украина, 7 канал
Жанр: Документальный
Продолжительность: 01:16:00
Язык: Русский, Украинский

Описание: 9 мая 2013 года. Парад Победы в Харькове на пл.Свободы.
Семпл: http://multi-up.com/863635

Качество: DVB (IPTV - Triolan -)
Формат: MPEG
Видео кодек: MPEG2
Аудио кодек: MPEG1 Layer 2
Видео: MPEG2 Video 720x576 (4:3) 25.00fps ~4 026 Kbps, 0.388 bit/pixel
Аудио: MPEG Audio 48000Hz 2 channel 192 Кбит/сек
Общее
Полное имя Parad.Pobedy.Kharkov.2013.DVB.Files-x.mpg
Формат : MPEG-PS
Размер файла : 2,28 Гбайт
Продолжительность : 1 ч. 16 м.
Режим общего битрейта : Переменный
Общий поток : 4289 Кбит/сек

Видео
Идентификатор : 224 (0xE0)
Формат : MPEG Video
Версия формата : Version 2
Профиль формата : Main@Main
Параметр BVOP формата : Да
Параметр матрицы формата : Выборочная
Параметр GOP формата : M=3, N=12
Продолжительность : 1 ч. 16 м.
Вид битрейта : Переменный
Битрейт : 4026 Кбит/сек
Ширина : 720 пикселей
Высота : 576 пикселей
Соотношение сторон : 4:3
Частота кадров : 25,000 кадров/сек
Стандарт вещания : PAL
Цветовое пространство : YUV
Субдискретизация насыщенности : 4:2:0
Битовая глубина : 8 бит
Тип развёртки : Чересстрочная
Порядок развёртки : Верхнее поле первое
Метод сжатия : С потерями
Бит/(Пиксели*Кадры) : 0.388
TimeCode_FirstFrame : 00:00:00:00
TimeCode_Source : Group of pictures header
Размер потока : 2,13 Гбайт (94%)

Аудио
Идентификатор : 192 (0xC0)
Формат : MPEG Audio
Версия формата : Version 1
Профиль формата : Layer 2
Продолжительность : 1 ч. 16 м.
Вид битрейта : Постоянный
Битрейт : 192 Кбит/сек
Каналы : 1 канал
Частота : 48,0 КГц
Метод сжатия : С потерями
Размер потока : 104 Мбайт (4%)




   Похожие торренты   Торрент   Размер 
В этой теме нет новых непрочитанных сообщений. Парад Победы. Екатеринбург. Военный Парад Победы 68 лет (2013) SATRip

1 | 2

1.18 ГБ

В этой теме нет новых непрочитанных сообщений. Парад Победы - Москва. Красная площадь. Парад, посвященный 66-й годовщине Победы (09.05.2011) SATRip от Generalfilm

0 | 4

600.81 МБ

В этой теме нет новых непрочитанных сообщений. Парад Победы на Красной Площади (2010) SATRip

0 | 4

799.07 МБ

В этой теме нет новых непрочитанных сообщений. Парад Победы на Красной Площади (2010) IPTVRip

0 | 2

799.7 МБ

В этой теме нет новых непрочитанных сообщений. Парад ПОБЕДЫ на Красной площади. Только техника (2010) SATRip

0 | 2

383.16 МБ

В этой теме нет новых непрочитанных сообщений. Парад Победы 24 июня 1945 года. Песни войны и победы (2005) DVD5

55 | 3

4.05 ГБ

В этой теме нет новых непрочитанных сообщений. Парад Победы 24 июня 1945 года. Песни войны и победы (2005) DVDRip

316 | 3

930.86 МБ




Вы не можете начинать темы
Вы не можете отвечать на сообщения
Вы не можете редактировать свои сообщения
Вы не можете удалять свои сообщения
Вы не можете добавлять вложения

Перейти:  
Для Мосгорсуда, Роскомнадзора и рекламодателей: mosgorsud-torrent[собачка]yandex.ru
 Вход
ppkBB3cker v.2 © 2008-2014 @ PPK
[ Time : 3.167s | 14 Queries | GZIP : Off ]

Торрент трекер RUTOR.IN, Не можете зайти на rutor.org? Какой новый адрес рутор? Какое зеркало рутор? Не работает rutor.org и зеркала? Тогда наш торрент специально для вас. Rutor.in неофициальное зеркало rutor. В случае если у Вас заблокирован rutor или вдруг Вы не можете на него зайти, то Вы без труда сможете скачать бесплатно и без рекламы последние новинки кино, игр, сериалов и прочего у нас, на Rutor.in. Не нужно использовать прокси, чтобы зайти на рутор, достаточно воспользоваться нашим ресурсом. Все новые фильмы, игры, сериалы, книги и музыка за 2013 и 2014 годы через торрент бесплатно. Скачивайте фильмы в хорошем качестве, игры для пк, xbox, playstation без регистрации. У нас вы найдете новые Зарубежные сериалы и Русские сериалы 2013, 2014, 2015 годов. Оставайтесь с нами, качайте любимые фильмы, игры, сериалы, книги и музыку.