img image001 image001 image001 image001 image001 image001 image001 image001 image001 image001 image001 image001 image001 image001 image001

Planets Sun Sun Sun
Статистика раздачи
Автор: Снежана | Размер: 604.07 МБ | Добавлен: 27 июл 2013
Раздают: 0    Качают: 1
Скачать торрент
Скачать торрент
Описание торрента

СообщениеДобавлено: 27 июл 2013 

#77

Информация о фильме
Название: Праздничное шествие ветеранов Великой Отечественной Войны: Минск
Год выхода: 2013
Производство: Белтелерадиокомпания
Страна: Беларусь
Продолжительность программы: 00:47:32
Перевод: Не требуется

Описание:
Торжественное шествие ветеранов Великой Отечественной войны, в связи с празднованием Дня Победы Советского Союза над гитлеровской германией 9 - го мая 1945 - го года, и возложение венков к монументу Победы. По традиции шествие возглавляет Президент Респубилики Беларусь А.Г. Лукашенко.

Файл
Кодек: XviD
Качество: DVBRip
Видео: 696x520, 25 к/с, 4:3, 1700 кбит/с
Звук: MP3, 64 кбит/с, 48 кгц, моно

Format : AVI
Format/Info : Audio Video Interleave
File size : 604 MiB
Duration : 47mn 32s
Overall bit rate : 1 776 Kbps
Writing application : VirtualDubMod 1.5.10.2 (build 2540/release)
Writing library : VirtualDubMod build 2540/release

Video
ID : 0
Format : MPEG-4 Visual
Format profile : Advanced Simple@L5
Format settings, BVOP : 2
Format settings, QPel : Yes
Format settings, GMC : No warppoints
Format settings, Matrix : Default (MPEG)
Muxing mode : Packed bitstream
Codec ID : XVID
Codec ID/Hint : XviD
Duration : 47mn 32s
Bit rate : 1 703 Kbps
Width : 696 pixels
Height : 520 pixels
Display aspect ratio : 4:3
Frame rate : 25.000 fps
Color space : YUV
Chroma subsampling : 4:2:0
Bit depth : 8 bits
Scan type : Progressive
Compression mode : Lossy
Bits/(Pixel*Frame) : 0.188
Stream size : 579 MiB (96%)
Writing library : XviD 1.2.1 (UTC 2008-12-04)

Audio
ID : 1
Format : MPEG Audio
Format version : Version 1
Format profile : Layer 3
Codec ID : 55
Codec ID/Hint : MP3
Duration : 47mn 32s
Bit rate mode : Constant
Bit rate : 64.0 Kbps
Channel(s) : 1 channel
Sampling rate : 48.0 KHz
Compression mode : Lossy
Stream size : 21.8 MiB (4%)
Alignment : Aligned on interleaves
Interleave, duration : 40 ms (1.00 video frame)
Interleave, preload duration : 504 ms




   Похожие торренты   Торрент   Размер 
В этой теме нет новых непрочитанных сообщений. Песни Великой отечественной войны и Песни о Великой отечественной войне () MP3

387 | 30

304.27 МБ

В этой теме нет новых непрочитанных сообщений. Песни Великой Отечественной войны (1975) MP3

126 | 8

177.71 МБ

В этой теме нет новых непрочитанных сообщений. Сборник - Песни Великой Отечественной войны (3CD) (1975) MP3

809 | 64

300.25 МБ

В этой теме нет новых непрочитанных сообщений. Мультимедийная карта Великой Отечественной Войны (2008) PC

65 | 8

136.42 МБ

В этой теме нет новых непрочитанных сообщений. Сборник - Песни Великой Отечественной войны (2010) MP3

1514 | 58

101.73 МБ

В этой теме нет новых непрочитанных сообщений. Ликсо В.В. - Стрелковое оружие Великой Отечественной войны (2014) PDF

103 | 6

152.08 МБ

В этой теме нет новых непрочитанных сообщений. Центральный музей Великой Отечественной войны (2004) DVDRip

2 | 2

405.97 МБ




Вы не можете начинать темы
Вы не можете отвечать на сообщения
Вы не можете редактировать свои сообщения
Вы не можете удалять свои сообщения
Вы не можете добавлять вложения

Перейти:  
Для Мосгорсуда, Роскомнадзора и рекламодателей: mosgorsud-torrent[собачка]yandex.ru
 Вход
ppkBB3cker v.2 © 2008-2014 @ PPK
[ Time : 0.021s | 15 Queries | GZIP : Off ]

Торрент трекер RUTOR.IN, Не можете зайти на rutor.org? Какой новый адрес рутор? Какое зеркало рутор? Не работает rutor.org и зеркала? Тогда наш торрент специально для вас. Rutor.in неофициальное зеркало rutor. В случае если у Вас заблокирован rutor или вдруг Вы не можете на него зайти, то Вы без труда сможете скачать бесплатно и без рекламы последние новинки кино, игр, сериалов и прочего у нас, на Rutor.in. Не нужно использовать прокси, чтобы зайти на рутор, достаточно воспользоваться нашим ресурсом. Все новые фильмы, игры, сериалы, книги и музыка за 2013 и 2014 годы через торрент бесплатно. Скачивайте фильмы в хорошем качестве, игры для пк, xbox, playstation без регистрации. У нас вы найдете новые Зарубежные сериалы и Русские сериалы 2013, 2014, 2015 годов. Оставайтесь с нами, качайте любимые фильмы, игры, сериалы, книги и музыку.