img image001 image001 image001 image001 image001 image001 image001 image001 image001 image001 image001 image001 image001 image001 image001

Planets Sun Sun Sun
Статистика раздачи
Автор: Снежана | Размер: 15.58 ГБ | Добавлен: 27 июл 2013
Раздают: 9    Качают: 14
Скачать торрент
Скачать торрент
Описание торрента

СообщениеДобавлено: 27 июл 2013 

Голос Америки / The Voice US


Название: Голос Америки
#77
Оригинальное название: The Voice US
Год выхода: 2013
Жанр: Вокальное шоу, музыкальный конкурс, концерт



Режиссер: Алан Картер

В ролях: Карсон Дэйли, Адам Левин, Шакира, Ашер, Блейк Шелтон, Кристина Милиан



О фильме:
Добро пожаловать на шоу The Voice! Состязание не похожее ни на одно другое шоу, потому что голос здесь играет главную роль. Адам Левин, Шакира, Ашер и Блейк Шелтон собрались вместе, чтобы открыть величайший голос Америки!







Страна: США
Студии: Mark Burnett Productions, Talpa Productions, Warner Horizon Television
Продолжительность: 5 х ~ 01:25:00, 5 x ~ 00:42:00
Перевод: Субтитры (TheVoiceRussia)



Качество: HDTVRip 720p
Видео: MPEG-4 AVC, ~ 2800 Кбит/с, 1280х720
Звук: Английский (AC3, 6 ch, 384 Кбит/с)
Субтитры: Русские, английские


Общее
Уникальный идентификатор : 184294679870940255274029019975358002581 (0x8AA5DD3FD8B47FEA9546EEB8D102B595)
Полное имя : E:The Voice US S04 HDTVRip 720pThe.Voice.S04E04.720p.HDTV.x264.mkv
Формат : Matroska
Версия формата : Version 2
Размер файла : 1,04 Гбайт
Продолжительность : 42 м.
Общий поток : 3510 Кбит/сек
Дата кодирования : UTC 2013-04-16 07:43:53
Программа кодирования : mkvmerge v6.1.0 ('Old Devil') built on Mar 2 2013 14:32:37
Библиотека кодирования : libebml v1.3.0 + libmatroska v1.4.0

Видео
Идентификатор : 1
Формат : AVC
Формат/Информация : Advanced Video Codec
Профиль формата : High@L4.1
Параметр CABAC формата : Да
Параметр ReFrames формата : 5 кадров
Идентификатор кодека : V_MPEG4/ISO/AVC
Продолжительность : 42 м.
Битрейт : 3056 Кбит/сек
Ширина : 1280 пикселей
Высота : 720 пикселей
Соотношение сторон : 16:9
Режим частоты кадров : Постоянный
Частота кадров : 29,970 кадров/сек
Цветовое пространство : YUV
Субдискретизация насыщенности : 4:2:0
Битовая глубина : 8 бит
Тип развёртки : Прогрессивная
Бит/(Пиксели*Кадры) : 0.111
Размер потока : 929 Мбайт (87%)
Библиотека кодирования : x264 core 130 r2273 b3065e6
Настройки программы : cabac=1 / ref=5 / deblock=1:0:0 / analyse=0x3:0x113 / me=umh / subme=8 / psy=1 / psy_rd=1.00:0.00 / mixed_ref=1 / me_range=16 / chroma_me=1 / trellis=1 / 8x8dct=1 / cqm=0 / deadzone=21,11 / fast_pskip=0 / chroma_qp_offset=-2 / threads=18 / lookahead_threads=3 / sliced_threads=0 / nr=0 / decimate=1 / interlaced=0 / bluray_compat=0 / constrained_intra=0 / bframes=3 / b_pyramid=2 / b_adapt=2 / b_bias=0 / direct=3 / weightb=1 / open_gop=0 / weightp=2 / keyint=250 / keyint_min=25 / scenecut=40 / intra_refresh=0 / rc_lookahead=50 / rc=crf / mbtree=1 / crf=20.0 / qcomp=0.60 / qpmin=0 / qpmax=69 / qpstep=4 / ip_ratio=1.40 / aq=1:1.00
Язык : English
Default : Да
Forced : Нет
Коэффициенты матрицы : BT.709

Аудио
Идентификатор : 2
Формат : AC-3
Формат/Информация : Audio Coding 3
Расширение режима : CM (complete main)
Параметр Endianness формата : Big
Идентификатор кодека : A_AC3
Продолжительность : 42 м.
Вид битрейта : Постоянный
Битрейт : 384 Кбит/сек
Каналы : 6 каналов
Расположение каналов : Front: L C R, Side: L R, LFE
Частота : 48,0 КГц
Битовая глубина : 16 бит
Метод сжатия : С потерями
Размер потока : 117 Мбайт (11%)
Язык : English
Default : Да
Forced : Нет

Текст #1
Идентификатор : 3
Формат : UTF-8
Идентификатор кодека : S_TEXT/UTF8
Идентификатор кодека/Информация : UTF-8 Plain Text
Заголовок : TheVoiceRussia
Язык : Russian
Default : Да
Forced : Нет

Текст #2
Идентификатор : 4
Формат : UTF-8
Идентификатор кодека : S_TEXT/UTF8
Идентификатор кодека/Информация : UTF-8 Plain Text
Заголовок : Addic7ed
Язык : English
Default : Нет
Forced : Нет



   Похожие торренты   Торрент   Размер 
В этой теме нет новых непрочитанных сообщений. Голос Америки / The Voice US [03х01-32] (2012) HDTVRip 720p | Sub

2 | 9

51.09 ГБ

В этой теме нет новых непрочитанных сообщений. Голос Британии / The Voice UK [02x01-13] (2013) HDTVRip 720р | Sub

0 | 3

22.29 ГБ

В этой теме нет новых непрочитанных сообщений. Я тебя услышу / Я слышу твой голос / I Hear Your Voice [S01] (2013) HDTVRip | STEPonee

65 | 54

11.53 ГБ

В этой теме нет новых непрочитанных сообщений. Голос / The Voice U.S. [S01] (2011) HDTVRip | Субтитры

3 | 2

8.52 ГБ

В этой теме нет новых непрочитанных сообщений. Голос Британии / The Voice UK [01x01-08] (2012) HDTVRip 720р

0 | 2

8.69 ГБ

В этой теме нет новых непрочитанных сообщений. Спящий голос / La voz dormida / The Sleeping Voice (2011) BDRip 720p | Sub

0 | 1

5.47 ГБ

В этой теме нет новых непрочитанных сообщений. VA - Голос / The Voice [Выпуск 01-13] (2012) MP3

8 | 6

648.95 МБ




Вы не можете начинать темы
Вы не можете отвечать на сообщения
Вы не можете редактировать свои сообщения
Вы не можете удалять свои сообщения
Вы не можете добавлять вложения

Перейти:  
Для Мосгорсуда, Роскомнадзора и рекламодателей: mosgorsud-torrent[собачка]yandex.ru
 Вход
ppkBB3cker v.2 © 2008-2014 @ PPK
[ Time : 1.751s | 16 Queries | GZIP : On ]

Торрент трекер RUTOR.IN, Не можете зайти на rutor.org? Какой новый адрес рутор? Какое зеркало рутор? Не работает rutor.org и зеркала? Тогда наш торрент специально для вас. Rutor.in неофициальное зеркало rutor. В случае если у Вас заблокирован rutor или вдруг Вы не можете на него зайти, то Вы без труда сможете скачать бесплатно и без рекламы последние новинки кино, игр, сериалов и прочего у нас, на Rutor.in. Не нужно использовать прокси, чтобы зайти на рутор, достаточно воспользоваться нашим ресурсом. Все новые фильмы, игры, сериалы, книги и музыка за 2013 и 2014 годы через торрент бесплатно. Скачивайте фильмы в хорошем качестве, игры для пк, xbox, playstation без регистрации. У нас вы найдете новые Зарубежные сериалы и Русские сериалы 2013, 2014, 2015 годов. Оставайтесь с нами, качайте любимые фильмы, игры, сериалы, книги и музыку.