img image001 image001 image001 image001 image001 image001 image001 image001 image001 image001 image001 image001 image001 image001 image001

Planets Sun Sun Sun
Статистика раздачи
Автор: Снежана | Размер: 29.71 ГБ | Добавлен: 27 июл 2013
Раздают: 2    Качают: 3
Скачать торрент
Скачать торрент
Описание торрента

СообщениеДобавлено: 27 июл 2013 

Eurovision 2013
#77
Дата : 14, 16 и 18 Мая 2013 года
Место проведения: Sweden, Malmö, Malmö Arena
Жанр : Pop
Язык : Русский
Продолжительность : 01:50:42 + 01:52:34 + 03:16:47
Описание: «Евровидение» — это конкурс эстрадной песни среди участников стран Европы. В конкурсе участвуют по одному представителю от каждой из стран-членов Европейского вещательного союза. От каждой страны в конкурсе участвует один представитель (солист или группа не более 6 участников), исполняющий песню длительностью не более 3-х минут. После выступления всех участников наиболее популярная песня определяется путeм телеголосования.
В 2013 году конкурс проходит в Шведском городе Мальмо.
Добавлен Финал !!!Обновите торрент файл !!!
01. Австрия - Наталия Келли (Natalia Kelly), "Shine"
02. Эстония - Биргит (Birgit), "Et Uus Saaks Alguse"
03. Словения - Ханна (Hannah), "Straight Into Love"
04. Хорватия - группа "Klapa s mora", "Mižerja"
05. Дания - Эмили де Форест (Emmelie de Forest), "Only Teardrops"
06. Россия - Дина Гарипова, "What If"
07. Украина - Злата Огневич, "Gravity"
08. Нидерланды - Анук (Anouk), "Birds"
09. Черногория - дуэт "Who See", "Igranka"
10. Литва - Андриус Появис (Andrius Pojavis), "Something"
11. Беларусь - Алена Ланская, "Solayoh"
12. Молдова - Алена Мун (Aliona Moon), "O Mie"
13. Ирландия - Райан Долан (Ryan Dolan), "Only Love Survives"
14. Кипр - Деспина Олимпиу (Despina Olympiou), "An Me Thimasai"
15. Бельгия - Роберто Беллароса (Roberto Bellarosa), "Love Kills"
16. Сербия - трио "Moje 3", "Ljubav Je Svuda"
General #1
ID : 1 (0x1)
Complete name : 1 - Eurovision Song Contest 2013. Semi-final - 1_HDTV by Kaddafi.ts
Format : MPEG-TS
File size : 7.98 GiB
Duration : 1h 50mn
Overall bit rate : 10.3 Mbps
Video #305
ID : 305 (0x131)
Menu ID : 1 (0x1)
Format : AVC
Format/Info : Advanced Video Codec
Format profile : High@L4.0
Format settings, CABAC : Yes
Format settings, ReFrames : 3 frames
Codec ID : 27
Duration : 1h 50mn
Bit rate : 9 422 Kbps
Width : 1 920 pixels
Height : 1 080 pixels
Display aspect ratio : 16:9
Frame rate : 25.000 fps
Standard : Component
Color space : YUV
Chroma subsampling : 4:2:0
Bit depth : 8 bits
Scan type : Interlaced
Scan order : Top Field First
Bits/(Pixel*Frame) : 0.182
Stream size : 7.29 GiB (91%)
Color primaries : BT.709-5, BT.1361, IEC 61966-2-4, SMPTE RP177
Transfer characteristics : BT.709-5, BT.1361
Matrix coefficients : BT.709-5, BT.1361, IEC 61966-2-4 709, SMPTE RP177
Audio #415
ID : 415 (0x19F)
Menu ID : 1 (0x1)
Format : AC-3
Format/Info : Audio Coding 3
Mode extension : CM (complete main)
Codec ID : 6
Duration : 1h 50mn
Bit rate mode : Constant
Bit rate : 384 Kbps
Channel(s) : 2 channels
Channel positions : Front: L R
Sampling rate : 48.0 KHz
Bit depth : 16 bits
Compression mode : Lossy
Stream size : 304 MiB (4%)
Language : Russian

1. PeR - Here We Go (Латвия)
2. Валентина Монетта - Crisalide (Сан-Марино)
3. Влатко Лозаноски и Эсма Реджепова - Imperija (Македония)
4. Фарид Мамедов - Hold Me (Азербайджан)
5. Криста Сиегфридс - Marry Me (Финляндия)
6. Джанлука Беззина - Tomorrow (Мальта)
7. Елица Тодорова и Стоян Янкулов - Kismet (Болгария)
8. Эйтоур Инги Гюннлёйгссон - Eg a líf (Исландия)
9. Koza Mostra и Агафонас Иаковидис - Alcohol Is Free (Греция)
10. Моран Мазор - Rak bishvilo (Израиль)
11. Dorians - Lonely Planet (Армения)
12. ByeAlex - Kedvesem (Венгрия)
13. Маргарет Бергер - I Feed You My Love (Норвегия) (Ireland)
14. Адриан Лулгюрай и Бледар Сейко - Identitet (Албания)
15. Софо Геловани и Нодико Татишвили - Waterfall (Грузия)
16. Takasa - You and Me (Швейцария)
17. Cesar - It's My Life (Румыния)
General #1
ID : 1 (0x1)
Complete name : 2 - Eurovision Song Contest 2013. Semi-final - 2_HDTV by Kaddafi.ts
Format : MPEG-TS
File size : 8.63 GiB
Duration : 1h 52mn
Overall bit rate : 11.0 Mbps
Video #305
ID : 305 (0x131)
Menu ID : 1 (0x1)
Format : AVC
Format/Info : Advanced Video Codec
Format profile : High@L4.0
Format settings, CABAC : Yes
Format settings, ReFrames : 3 frames
Codec ID : 27
Duration : 1h 52mn
Bit rate : 10.0 Mbps
Width : 1 920 pixels
Height : 1 080 pixels
Display aspect ratio : 16:9
Frame rate : 25.000 fps
Standard : Component
Color space : YUV
Chroma subsampling : 4:2:0
Bit depth : 8 bits
Scan type : Interlaced
Scan order : Top Field First
Bits/(Pixel*Frame) : 0.194
Stream size : 7.90 GiB (92%)
Color primaries : BT.709-5, BT.1361, IEC 61966-2-4, SMPTE RP177
Transfer characteristics : BT.709-5, BT.1361
Matrix coefficients : BT.709-5, BT.1361, IEC 61966-2-4 709, SMPTE RP177
Audio #415
ID : 415 (0x19F)
Menu ID : 1 (0x1)
Format : AC-3
Format/Info : Audio Coding 3
Mode extension : CM (complete main)
Codec ID : 6
Duration : 1h 52mn
Bit rate mode : Constant
Bit rate : 384 Kbps
Channel(s) : 2 channels
Channel positions : Front: L R
Sampling rate : 48.0 KHz
Bit depth : 16 bits
Compression mode : Lossy
Stream size : 309 MiB (3%)
Language : Russian

1. Франция — Амандин буржуа с песней "L'Enfer Et Moi"
2. Литва — Андрюс Появис, "Something"
3. Молдова — Альона Мун, "O Mie"
4. Финляндия — Криста Зигфридис, "Marry Me"
5. Испания — группа "El Sueno de Morfeo (ESDM)", "Contigo Hasta El Final"
6. Бельгия — Роберто Беллароса, "Love Kills"
7. Эстония — Биргит, Et Uus Saaks Alguse"
8. Беларусь — Алена Ланская, "Solayoh"
9. Мальта — Джанлука Беццине, "Tomorrow"
10. Россия — Дина Гарипова, "What if"
11. Германия - "Cascada", "Glorious"
12. Армения - Dorians, "Lonely planet"
13. Нидерланды — Анук, "Birds"
14. Румыния — Чезар, "It's My Life"
15. Великобритания — Бони Тайлер, "Believe In Me"
16. Швеция — Робин Стьернберг, "You"
17. Венгрия - ByeAlex, "Kedvesem (Zoohacker Remix)"
18. Дания — Эмили де Форест, "Only Teardrops"
19. Исландия — Эйтор Инги Гуннлагссон, "Eg A Lif"
20. Азейрбайджан — Фарид Мамедов, "Hold me"
21. Греция - "Koza Mostra" feat. Agathon Iakovidis, "Alcohol Is Free"
22. Украина — Злата Огневич, "Gravity"
23. Италия — Марко Менгони, "L'Essenziale (The Essential)"
24. Норвегия — Маргарет Бергер, "I Feed You My Love"
25. Грузия — Софи Геловани и Ноди Татишвили, "Waterfall"
26. Ирландия — Райан Долан, "Only Love Survives".
General #1
ID : 1 (0x1)
Complete name : 3 - Eurovision Song Contest 2013. Final_HDTV by Kaddafi.ts
Format : MPEG-TS
File size : 13.1 GiB
Duration : 3h 16mn
Overall bit rate mode : Variable
Overall bit rate : 9 532 Kbps
Maximum Overall bit rate : 35.5 Mbps
Video #4113
ID : 4113 (0x1011)
Menu ID : 1 (0x1)
Format : AVC
Format/Info : Advanced Video Codec
Format profile : High@L4.0
Format settings, CABAC : Yes
Format settings, ReFrames : 3 frames
Codec ID : 27
Duration : 3h 16mn
Bit rate mode : Variable
Bit rate : 8 674 Kbps
Maximum bit rate : 40.0 Mbps
Width : 1 920 pixels
Height : 1 080 pixels
Display aspect ratio : 16:9
Frame rate : 25.000 fps
Standard : Component
Color space : YUV
Chroma subsampling : 4:2:0
Bit depth : 8 bits
Scan type : Interlaced
Scan order : Top Field First
Bits/(Pixel*Frame) : 0.167
Stream size : 11.9 GiB (91%)
Color primaries : BT.709-5, BT.1361, IEC 61966-2-4, SMPTE RP177
Transfer characteristics : BT.709-5, BT.1361
Matrix coefficients : BT.709-5, BT.1361, IEC 61966-2-4 709, SMPTE RP177
Audio #4352
ID : 4352 (0x1100)
Menu ID : 1 (0x1)
Format : AC-3
Format/Info : Audio Coding 3
Mode extension : CM (complete main)
Codec ID : 129
Duration : 3h 16mn
Bit rate mode : Constant
Bit rate : 384 Kbps
Channel(s) : 2 channels
Channel positions : Front: L R
Sampling rate : 48.0 KHz
Bit depth : 16 bits
Compression mode : Lossy
Stream size : 541 MiB (4%)
Language : Russian



Релиз от
Качество: Full HD, 1080i
Формат: TS
Видео кодек: AVC
Аудио кодек: AC3
Видео: H.264, 1920x1080 (16:9) 25.00fps , 10.0 Mbps
Аудио: AC3, 48 kHz, 2 ch, 384 kbps



   Похожие торренты   Торрент   Размер 
В этой теме нет новых непрочитанных сообщений. Евровидение 2013: 1-й полуфинал / Eurovision 2013: First Semi-Final (2013) HDTVRip AVC

1 | 1

2 ГБ

В этой теме нет новых непрочитанных сообщений. Велоспорт. Арктическая гонка Норвегии 2013 / Arctic Race of Norway 2013 (2013) HDTV 1080i

0 | 3

8.64 ГБ

В этой теме нет новых непрочитанных сообщений. Евровидение 2016. 2-й полуфинал / Eurovision Song Contest 2016 (2016) HDTV 1080i

60 | 18

10 ГБ

В этой теме нет новых непрочитанных сообщений. Новая волна-2013. Первый конкурсный день. Мировой хит (эфир от 2013.07.24) (2013) HDTV 1080i от MediaClub

3 | 2

8.65 ГБ

В этой теме нет новых непрочитанных сообщений. Велоспорт. Тур Валлонии 2013 / Tour de Wallonie 2013 [этап 01-05] (2013) HDTV 1080i

1 | 1

11.45 ГБ

В этой теме нет новых непрочитанных сообщений. Велоспорт. Тур де Франс 2013 / Le Tour de France 2013 [этап 01-09] (2013) HDTV 1080i

0 | 1

74.55 ГБ

В этой теме нет новых непрочитанных сообщений. Велоспорт. Тур де Франс 2013 / Le Tour de France 2013 [этап 01-21] (2013) HDTV 1080i

3 | 6

164.18 ГБ




Вы не можете начинать темы
Вы не можете отвечать на сообщения
Вы не можете редактировать свои сообщения
Вы не можете удалять свои сообщения
Вы не можете добавлять вложения

Перейти:  
Для Мосгорсуда, Роскомнадзора и рекламодателей: mosgorsud-torrent[собачка]yandex.ru
 Вход
ppkBB3cker v.2 © 2008-2014 @ PPK
[ Time : 0.030s | 15 Queries | GZIP : On ]

Торрент трекер RUTOR.IN, Не можете зайти на rutor.org? Какой новый адрес рутор? Какое зеркало рутор? Не работает rutor.org и зеркала? Тогда наш торрент специально для вас. Rutor.in неофициальное зеркало rutor. В случае если у Вас заблокирован rutor или вдруг Вы не можете на него зайти, то Вы без труда сможете скачать бесплатно и без рекламы последние новинки кино, игр, сериалов и прочего у нас, на Rutor.in. Не нужно использовать прокси, чтобы зайти на рутор, достаточно воспользоваться нашим ресурсом. Все новые фильмы, игры, сериалы, книги и музыка за 2013 и 2014 годы через торрент бесплатно. Скачивайте фильмы в хорошем качестве, игры для пк, xbox, playstation без регистрации. У нас вы найдете новые Зарубежные сериалы и Русские сериалы 2013, 2014, 2015 годов. Оставайтесь с нами, качайте любимые фильмы, игры, сериалы, книги и музыку.