img image001 image001 image001 image001 image001 image001 image001 image001 image001 image001 image001 image001 image001 image001 image001

Planets Sun Sun Sun
Статистика раздачи
Автор: Снежана | Размер: 14.05 ГБ | Добавлен: 27 июл 2013
Раздают: 396    Качают: 101
Скачать торрент
Скачать торрент
Описание торрента

СообщениеДобавлено: 27 июл 2013 

#77
Год выпуска: 2010 - 2012
Выпущено: Россия / "Стар Медиа Про"

Жанр: документальный, военный, история
Продолжительность: ~ 00:51:00 / серия

Перевод: не требуется
Оригинальная аудиодорожка: русский
Субтитры: нет

Режиссер: Анна Граждан, Валерий Бабич

В ролях: Евгений Сенчуков, Анатолий Богуш

Описание: Документальный Цикл "ВЕЛИКАЯ ВОЙНА" рассказывает о наиболее значимых событиях и сражениях. Повествование охватывает весь период войны от дня вторжения немецких войск на территорию нашей страны до дня победы 9 мая 1945 года. В фильме подробно рассматриваются причины поражений Красной армии в первые дни войны, стратегические и тактические решения советского командования. Особое внимание уделено техническому оснащению войск, малоизвестным особенностям ведения боев в различные периоды войны тем или иным родом войск. Но самое главное – фильм о том, каким образом Красная армия и советский народ смогли оправиться после поражений 1941-42 годов, выстоять и победить. Цикл "Великая Война" сделан с использованием 3D-анимации, которая в сочетании с кинохроникой позволит воспроизвести масштабность происходивших событий и их драматизм, дать необходимые пояснения, понятные даже неискушенному в вопросах военной истории зрителю. Применение постановочной реконструкции в сочетании со средствами компьютерной графики позволяют восстановить те события, которые не могла зафиксировать кинохроника.







Качество: DVDRip (3xDVD9 R5)
Формат: AVI

Видео: 720x384 (1.85:1), 25.000 fps, XviD ~ 1994 kbps avg, 0.288 bit/pixel
Аудио: 48 kHz, Dolby AC3 2.0 192 kbps, русский

Раздача от:
Том № I
1. Барбаросса
2. Киев 1941
3. Оборона Севастополя
4. Битва за Москву
5. Блокада Ленинграда
6. Ржев

Том № II
7. Сталинград
8. Битва за Кавказ
9. Курская Дуга
10. От Днепра до Одера
11. Операция «Багратион»
12. Битва за Воздух

Том № III
13. Война на Море
14. Партизаны
15. Агентурная Разведка
16. Битва за Германию
17. Битва за Берлин
18. Война с Японией

Общее
Полное имя : Velikaya.voina.2010.DVDRip_[Youtracker]_by_avproh�1.avi
Формат : AVI
Формат/Информация : Audio Video Interleave
Размер файла : 800 Мбайт
Продолжительность : 50 м.
Общий поток : 2196 Кбит/сек
Программа кодирования : VirtualDubMod 1.5.10.3 | www.virtualdub-fr.org || (build 2550/release)
Библиотека кодирования : VirtualDubMod build 2550/release

Видео
Идентификатор : 0
Формат : MPEG-4 Visual
Профиль формата : Advanced Simple@L5
Параметр BVOP формата : 1
Параметр QPel формата : Нет
Параметр GMC формата : Без точки перехода
Параметр матрицы формата : Выборочная
Идентификатор кодека : XVID
Идентификатор кодека/Подсказка : XviD
Продолжительность : 50 м.
Битрейт : 1994 Кбит/сек
Ширина : 720 пикселей
Высота : 384 пикселя
Соотношение сторон : 1,85:1
Частота кадров : 25,000 кадров/сек
Цветовое пространство : YUV
Субдискретизация насыщенности : 4:2:0
Битовая глубина : 8 бит
Тип развёртки : Прогрессивная
Метод сжатия : С потерями
Бит/(Пиксели*Кадры) : 0.288
Размер потока : 726 Мбайт (91%)
Библиотека кодирования : XviD 65

Аудио
Идентификатор : 1
Формат : AC-3
Формат/Информация : Audio Coding 3
Расширение режима : CM (complete main)
Параметр Endianness формата : Big
Идентификатор кодека : 2000
Продолжительность : 50 м.
Вид битрейта : Постоянный
Битрейт : 192 Кбит/сек
Каналы : 2 канала
Расположение каналов : Front: L R
Частота : 48,0 КГц
Битовая глубина : 16 бит
Метод сжатия : С потерями
Размер потока : 69,9 Мбайт (9%)
Выравнивание : Разделение по промежуткам
Продолжительность промежутка : 40 мс. (1,00 видеокадр)
Время предзагрузки промежутка : 500 мс.



Сначала с SATRip: http://rutor.org/torrent/194624/

картинка у конкурента обкропана лишку видимо из-за исходника, а качество видите сами: http://screenshotcomparison.com/comparison/24742

Теперь с DVDRip: http://rutor.org/torrent/210194/

в исходных дисках присутствует интерлейс, чего конкурент совсем не учел, обкропано тоже прилично лишнего, может быть исходники разные: http://screenshotcomparison.com/comparison/24744

Ещё один SATRip, там где серий 8 вместо восемнадцати: http://rutor.org/torrent/45678/

Сравнение видео: http://screenshotcomparison.com/comparison/25543

Но даже пожалуй не в этом дело, там вырезаны целые куски фильма. К примеру, продолжительность первой серии у конкурента составляет 47.48, моя серия - 50.54, я не нашел в конкурентной раздаче кое каких фрагментов фильма.



   Похожие торренты   Торрент   Размер 
В этой теме нет новых непрочитанных сообщений. Великая война [01-18 из 18] (2010-2012) DVDRip-AVC от Youtracker | лицензия

214 | 49

14 ГБ

В этой теме нет новых непрочитанных сообщений. Великая война [01-18 из 18] (2010-2012) 3xDVD9 от Youtracker | лицензия

230 | 9

23.23 ГБ

В этой теме нет новых непрочитанных сообщений. Великая война [01-18 из 18] (2011) DVDRip-AVC от Тorrent-Хzona

229 | 11

10.48 ГБ

В этой теме нет новых непрочитанных сообщений. Великая война гоблинов / Yôkai daisensô (2005) DVDRip

7 | 4

747.51 МБ

В этой теме нет новых непрочитанных сообщений. Великая Отечественная Война 1941-1945гг. (2000) DVDRip

147 | 103

2.05 ГБ

В этой теме нет новых непрочитанных сообщений. Великая война гоблинов / Yokai daisenso (2005) DVDRip | P

23 | 2

2.04 ГБ

В этой теме нет новых непрочитанных сообщений. Великая Отечественная война (Восточный фронт) (3 серии из 3) (1993) DVDRip

26 | 18

2.04 ГБ




Вы не можете начинать темы
Вы не можете отвечать на сообщения
Вы не можете редактировать свои сообщения
Вы не можете удалять свои сообщения
Вы не можете добавлять вложения

Перейти:  
Для Мосгорсуда, Роскомнадзора и рекламодателей: mosgorsud-torrent[собачка]yandex.ru
 Вход
ppkBB3cker v.2 © 2008-2014 @ PPK
[ Time : 15.400s | 16 Queries | GZIP : Off ]
CGP output time : 0.011s | 7 Queries | GZIP : Off

Торрент трекер RUTOR.IN, Не можете зайти на rutor.org? Какой новый адрес рутор? Какое зеркало рутор? Не работает rutor.org и зеркала? Тогда наш торрент специально для вас. Rutor.in неофициальное зеркало rutor. В случае если у Вас заблокирован rutor или вдруг Вы не можете на него зайти, то Вы без труда сможете скачать бесплатно и без рекламы последние новинки кино, игр, сериалов и прочего у нас, на Rutor.in. Не нужно использовать прокси, чтобы зайти на рутор, достаточно воспользоваться нашим ресурсом. Все новые фильмы, игры, сериалы, книги и музыка за 2013 и 2014 годы через торрент бесплатно. Скачивайте фильмы в хорошем качестве, игры для пк, xbox, playstation без регистрации. У нас вы найдете новые Зарубежные сериалы и Русские сериалы 2013, 2014, 2015 годов. Оставайтесь с нами, качайте любимые фильмы, игры, сериалы, книги и музыку.