img image001 image001 image001 image001 image001 image001 image001 image001 image001 image001 image001 image001 image001 image001 image001

Planets Sun Sun Sun
Статистика раздачи
Автор: Снежана | Размер: 2.36 ГБ | Добавлен: 27 июл 2013
Раздают: 0    Качают: 1
Скачать торрент
Скачать торрент
Описание торрента

СообщениеДобавлено: 27 июл 2013 

Радиорубка

Дата эфира: 25.03.-22.04.2013
Страна: Россия
Жанр: Документальный
Продолжительность: по ~45 мин.
Перевод: Не требуется
Русские субтитры: нет
Производство: ТВ "Комсомольская правда"

Описание: Самые резонансные события. Полярные взгляды. Кардинально противоположные взгляды на одну ситуацию. Это - бой на равных! Есть только одно правило - аргумент!

Релиз: Chelur

Качество: SATRip
Формат: AVI
Видео: 704x528 (1.33:1), 25 fps, DivX 6.9.2 ~1480 kbps, 0.15 bit/pixel
Аудио: 48 kHz, MPEG Layer 3, 2 ch, ~128 kbps avg
Общее
Полное имя : F:TorrentsRadiorubka_(TV_KP)_[rutracker.org]\01_Rr-Byl_li_Berezovskij_glavnym_vragom_Rossii_-24.03.2013.avi
Формат : AVI
Формат/Информация : Audio Video Interleave
Размер файла : 471 Мбайт
Продолжительность : 46 м.
Общий поток : 1419 Кбит/сек
Программа кодирования : VirtualDubMod 1.6.0.0 SURROUND (build 2560/release)
Библиотека кодирования : VirtualDubMod build 2560/release

Видео
Идентификатор : 0
Формат : MPEG-4 Visual
Параметр BVOP формата : 1
Параметр QPel формата : Нет
Параметр GMC формата : Без точки перехода
Параметр матрицы формата : Default (H.263)
Режим смешивания : Сжатый битовый поток
Идентификатор кодека : DX50
Идентификатор кодека/Подсказка : DivX 5
Продолжительность : 46 м.
Битрейт : 1281 Кбит/сек
Ширина : 704 пикселя
Высота : 528 пикселей
Соотношение сторон : 5:4
Соотношение сторон в оригинале : 4:3
Частота кадров : 25,000 кадров/сек
Цветовое пространство : YUV
Субдискретизация насыщенности : 4:2:0
Битовая глубина : 8 бит
Тип развёртки : Прогрессивная
Метод сжатия : С потерями
Бит/(Пиксели*Кадры) : 0.138
Размер потока : 425 Мбайт (90%)
Библиотека кодирования : DivX 6.8.5 (UTC 2009-08-20)

Аудио
Идентификатор : 1
Формат : MPEG Audio
Версия формата : Version 1
Профиль формата : Layer 3
Режим : Joint stereo
Расширение режима : MS Stereo
Идентификатор кодека : 55
Идентификатор кодека/Подсказка : MP3
Продолжительность : 46 м.
Вид битрейта : Постоянный
Битрейт : 128 Кбит/сек
Каналы : 2 канала
Частота : 48,0 КГц
Метод сжатия : С потерями
Размер потока : 42,5 Мбайт (9%)
Выравнивание : Разделение по промежуткам
Продолжительность промежутка : 40 мс. (1,00 видеокадр)
Время предзагрузки промежутка : 500 мс.
Библиотека кодирования : LAME3.99r
Настройки программы : -m j -V 4 -q 3 -lowpass 17 -b 128

[align=center][/align]

01. Был ли Березовский главным врагом России? (эфир_25.03.2013):
Ведущие: Александр ЯКОВЛЕВ, Евгений АРСЮХИН, Александр ГРИШИН
Имя файла: 01_Rr-Byl_li_Berezovskij_glavnym_vragom_Rossii_-24.03.2013.avi

02. Спасет ли Единую Россию переименование в Народный фронт? (эфир_01.04.2013):
Ведущие: Александр ЯКОВЛЕВ, Андрей БАРАНОВ, Евгений АРСЮХИН
Имя файла: 02_Rr-Spaset_li_Edinuju_Rossiju_pereimenovanie_-01.04.2013.avi

03. Нужно ли России поддержать США в конфликте с Северной Кореей? (эфир_08.04.2013):
Ведущие: Александр ГРИШИН, Евгений АРСЮХИН
Имя файла: 03_Rr-Nuzhno_li_Rossii_podderzhat'_USA_-08.04.2013.avi

04. Открытые декларации чиновников: поможет ли это бороться с коррупцией (эфир_15.04.2013):
Ведущие: Елена АФОНИНА, Евгений АРСЮХИН, Андрей БАРАНОВ
Имя файла: 04_Rr-Otkrytye_deklaracii_chinovnikov_-15.04.2013.avi

05. Взрывы в Бостоне: корни терроризма в политике или религии? (эфир_22.04.2013):
Ведущие: Михаил Антонов, Евгений АРСЮХИН, Андрей БАРАНОВ
Имя файла: 05_Rr-Vzryvy_v_Bostone-korni_terrorizma_-22.04.2013.avi



   Похожие торренты   Торрент   Размер 
В этой теме нет новых непрочитанных сообщений. Особый случай. Комсомольская правда ТВ [18 выпусков] (2013) SATRip

3 | 1

8.33 ГБ

В этой теме нет новых непрочитанных сообщений. История за пределами учебников. Комсомольская правда ТВ [20 выпусков] (2013) SATRip

3 | 2

6.08 ГБ

В этой теме нет новых непрочитанных сообщений. Битва цивилизаций [РЕН ТВ. 10 выпусков] [12.05] (2013) SATRip

50 | 11

6.48 ГБ

В этой теме нет новых непрочитанных сообщений. Дом 2. После заката [5 выпусков] (2013) SATRip

25 | 17

2.6 ГБ

В этой теме нет новых непрочитанных сообщений. Наука 2.0. EXперименты [39 выпусков] (2011-2013) SATRip

258 | 52

9.46 ГБ

В этой теме нет новых непрочитанных сообщений. Прокурорская проверка. [Выпуски за 2013 год: 00-100 выпусков] (2012) SATRip

6 | 13

66.25 ГБ

В этой теме нет новых непрочитанных сообщений. Прокурорская проверка [Выпуски за 2013 год: 101-139 выпусков] (2012) SATRip

10 | 18

25.63 ГБ




Вы не можете начинать темы
Вы не можете отвечать на сообщения
Вы не можете редактировать свои сообщения
Вы не можете удалять свои сообщения
Вы не можете добавлять вложения

Перейти:  
Для Мосгорсуда, Роскомнадзора и рекламодателей: mosgorsud-torrent[собачка]yandex.ru
 Вход
ppkBB3cker v.2 © 2008-2014 @ PPK
[ Time : 0.046s | 14 Queries | GZIP : Off ]

Торрент трекер RUTOR.IN, Не можете зайти на rutor.org? Какой новый адрес рутор? Какое зеркало рутор? Не работает rutor.org и зеркала? Тогда наш торрент специально для вас. Rutor.in неофициальное зеркало rutor. В случае если у Вас заблокирован rutor или вдруг Вы не можете на него зайти, то Вы без труда сможете скачать бесплатно и без рекламы последние новинки кино, игр, сериалов и прочего у нас, на Rutor.in. Не нужно использовать прокси, чтобы зайти на рутор, достаточно воспользоваться нашим ресурсом. Все новые фильмы, игры, сериалы, книги и музыка за 2013 и 2014 годы через торрент бесплатно. Скачивайте фильмы в хорошем качестве, игры для пк, xbox, playstation без регистрации. У нас вы найдете новые Зарубежные сериалы и Русские сериалы 2013, 2014, 2015 годов. Оставайтесь с нами, качайте любимые фильмы, игры, сериалы, книги и музыку.