img image001 image001 image001 image001 image001 image001 image001 image001 image001 image001 image001 image001 image001 image001 image001

Planets Sun Sun Sun
Статистика раздачи
Автор: Снежана | Размер: 14 ГБ | Добавлен: 27 июл 2013
Раздают: 214    Качают: 49
Скачать торрент
Скачать торрент
Описание торрента

СообщениеДобавлено: 27 июл 2013 

#77
Год выпуска: 2010 - 2012
Выпущено: Россия / "Стар Медиа Про"

Жанр: документальный, военный, история
Продолжительность: ~ 00:51:00 / серия

Перевод: не требуется
Оригинальная аудиодорожка: русский
Субтитры: нет

Режиссер: Анна Граждан, Валерий Бабич

В ролях: Евгений Сенчуков, Анатолий Богуш

Описание: Документальный Цикл "ВЕЛИКАЯ ВОЙНА" рассказывает о наиболее значимых событиях и сражениях. Повествование охватывает весь период войны от дня вторжения немецких войск на территорию нашей страны до дня победы 9 мая 1945 года. В фильме подробно рассматриваются причины поражений Красной армии в первые дни войны, стратегические и тактические решения советского командования. Особое внимание уделено техническому оснащению войск, малоизвестным особенностям ведения боев в различные периоды войны тем или иным родом войск. Но самое главное – фильм о том, каким образом Красная армия и советский народ смогли оправиться после поражений 1941-42 годов, выстоять и победить. Цикл "Великая Война" сделан с использованием 3D-анимации, которая в сочетании с кинохроникой позволит воспроизвести масштабность происходивших событий и их драматизм, дать необходимые пояснения, понятные даже неискушенному в вопросах военной истории зрителю. Применение постановочной реконструкции в сочетании со средствами компьютерной графики позволяют восстановить те события, которые не могла зафиксировать кинохроника.







Качество: DVDRip-AVC (3xDVD9 R5)
Формат: MKV

Видео: 720x404@762x404 (1.85:1), 25.000 fps, H264 ~ 1994 kbps avg, 0.274 bit/pixel
Аудио: 48 kHz, Dolby AC3 2.0 192 kbps, русский

Раздача от:
Том № I
1. Барбаросса
2. Киев 1941
3. Оборона Севастополя
4. Битва за Москву
5. Блокада Ленинграда
6. Ржев

Том № II
7. Сталинград
8. Битва за Кавказ
9. Курская Дуга
10. От Днепра до Одера
11. Операция «Багратион»
12. Битва за Воздух

Том № III
13. Война на Море
14. Партизаны
15. Агентурная Разведка
16. Битва за Германию
17. Битва за Берлин
18. Война с Японией

Общее
Полное имя : Velikaya.voina.2010.O.DVDRip-AVC_[Youtracker]_by_avproh\01.mkv
Формат : Matroska
Версия формата : Version 2
Размер файла : 797 Мбайт
Продолжительность : 50 м.
Общий поток : 2188 Кбит/сек
Дата кодирования : UTC 2013-05-22 09:39:09
Программа кодирования : mkvmerge v5.0.1 ('Es ist Sommer') built on Nov 6 2011 16:23:40
Библиотека кодирования : libebml v1.2.2 + libmatroska v1.3.0

Видео
Идентификатор : 1
Формат : AVC
Формат/Информация : Advanced Video Codec
Профиль формата : High@L4.1
Параметр CABAC формата : Да
Параметр ReFrames формата : 11 кадров
Идентификатор кодека : V_MPEG4/ISO/AVC
Продолжительность : 50 м.
Битрейт : 1994 Кбит/сек
Ширина : 720 пикселей
Высота : 404 пикселя
Соотношение сторон : 1,901
Режим частоты кадров : Постоянный
Частота кадров : 25,000 кадров/сек
Цветовое пространство : YUV
Субдискретизация насыщенности : 4:2:0
Битовая глубина : 8 бит
Тип развёртки : Прогрессивная
Бит/(Пиксели*Кадры) : 0.274
Размер потока : 711 Мбайт (89%)
Библиотека кодирования : x264 core 130 r2273 b3065e6
Настройки программы : cabac=1 / ref=11 / deblock=1:-2:-1 / analyse=0x3:0x113 / me=umh / subme=9 / psy=1 / psy_rd=1.00:0.20 / mixed_ref=1 / me_range=32 / chroma_me=1 / trellis=1 / 8x8dct=1 / cqm=0 / deadzone=21,11 / fast_pskip=0 / chroma_qp_offset=-3 / threads=6 / lookahead_threads=1 / sliced_threads=0 / nr=0 / decimate=0 / interlaced=0 / bluray_compat=0 / constrained_intra=0 / bframes=8 / b_pyramid=2 / b_adapt=2 / b_bias=0 / direct=3 / weightb=1 / open_gop=0 / weightp=2 / keyint=250 / keyint_min=25 / scenecut=40 / intra_refresh=0 / rc_lookahead=60 / rc=2pass / mbtree=1 / bitrate=1994 / ratetol=1.0 / qcomp=0.60 / qpmin=0 / qpmax=69 / qpstep=4 / cplxblur=20.0 / qblur=0.5 / ip_ratio=1.40 / aq=1:1.00
Default : Да
Forced : Нет

Аудио
Идентификатор : 2
Формат : AC-3
Формат/Информация : Audio Coding 3
Расширение режима : CM (complete main)
Параметр Endianness формата : Big
Идентификатор кодека : A_AC3
Продолжительность : 50 м.
Вид битрейта : Постоянный
Битрейт : 192 Кбит/сек
Каналы : 2 канала
Расположение каналов : Front: L R
Частота : 48,0 КГц
Битовая глубина : 16 бит
Метод сжатия : С потерями
Размер потока : 69,9 Мбайт (9%)
Default : Да
Forced : Нет





   Похожие торренты   Торрент   Размер 
В этой теме нет новых непрочитанных сообщений. Великая война [01-18 из 18] (2010-2012) DVDRip от Youtracker | лицензия

396 | 101

14.05 ГБ

В этой теме нет новых непрочитанных сообщений. Великая война [01-18 из 18] (2010-2012) 3xDVD9 от Youtracker | лицензия

230 | 9

23.23 ГБ

В этой теме нет новых непрочитанных сообщений. Великая война [01-18 из 18] (2011) DVDRip-AVC от Тorrent-Хzona

229 | 11

10.48 ГБ

В этой теме нет новых непрочитанных сообщений. Великая война гоблинов / Yôkai daisensô (2005) DVDRip

7 | 4

747.51 МБ

В этой теме нет новых непрочитанных сообщений. Великая война гоблинов / Yokai daisenso (2005) DVDRip | P

22 | 3

2.04 ГБ

В этой теме нет новых непрочитанных сообщений. Великая Отечественная Война 1941-1945гг. (2000) DVDRip

147 | 103

2.05 ГБ

В этой теме нет новых непрочитанных сообщений. Великая Отечественная война (Восточный фронт) (3 серии из 3) (1993) DVDRip

26 | 18

2.04 ГБ




Вы не можете начинать темы
Вы не можете отвечать на сообщения
Вы не можете редактировать свои сообщения
Вы не можете удалять свои сообщения
Вы не можете добавлять вложения

Перейти:  
Для Мосгорсуда, Роскомнадзора и рекламодателей: mosgorsud-torrent[собачка]yandex.ru
 Вход
ppkBB3cker v.2 © 2008-2014 @ PPK
[ Time : 23.850s | 16 Queries | GZIP : On ]
CGP output time : 0.036s | 5 Queries | GZIP : On

Торрент трекер RUTOR.IN, Не можете зайти на rutor.org? Какой новый адрес рутор? Какое зеркало рутор? Не работает rutor.org и зеркала? Тогда наш торрент специально для вас. Rutor.in неофициальное зеркало rutor. В случае если у Вас заблокирован rutor или вдруг Вы не можете на него зайти, то Вы без труда сможете скачать бесплатно и без рекламы последние новинки кино, игр, сериалов и прочего у нас, на Rutor.in. Не нужно использовать прокси, чтобы зайти на рутор, достаточно воспользоваться нашим ресурсом. Все новые фильмы, игры, сериалы, книги и музыка за 2013 и 2014 годы через торрент бесплатно. Скачивайте фильмы в хорошем качестве, игры для пк, xbox, playstation без регистрации. У нас вы найдете новые Зарубежные сериалы и Русские сериалы 2013, 2014, 2015 годов. Оставайтесь с нами, качайте любимые фильмы, игры, сериалы, книги и музыку.