img image001 image001 image001 image001 image001 image001 image001 image001 image001 image001 image001 image001 image001 image001 image001

Planets Sun Sun Sun
Статистика раздачи
Автор: Снежана | Размер: 3.36 ГБ | Добавлен: 27 июл 2013
Раздают: 1    Качают: 1
Скачать торрент
Скачать торрент
Описание торрента

СообщениеДобавлено: 27 июл 2013 


Праздничный концерт "Шахтер - Чемпион"

Год выпуска : 2013
Страна : Украина
Жанр : Show, Pop, Concert
Язык : Русский
Продолжительность : ~ 01:41:11
Описание: Церемония награждения победителей и праздничный концерт "Шахтер – чемпион" с участием звезд Украины и России состоится после матча 30-го тура Премьер-Лиги Украины между донецкими "Шахтером" и "Металлургом" на "Донбасс-Арене", результат которого уже никак не влияет на турнирное положение команд.

В концерте в честь чемпионов украинской Премьер-Лиги и обладателей Кубка Украины сезона 2012-2013 примут участие: Таисия Повалий, Ани Лорак, Гайтана, Елка, Филипп Киркоров, Николай Басков и многие другие артисты.

Зрители канала "Украина" станут свидетелями церемонии награждения футболистов "Шахтера" золотыми медалями Чемпионата, услышат поздравления президента клуба и тренерского штаба, увидят праздничный концерт и масштабное хореографическое шоу, в котором примут участие более 250 танцоров.

01. Таисия Повалий "Спят курганы тёмные"
02. Таисия Повалий "Я помолюсь за тебя"
03. Таисия Повалий "Пусть вам повезет в любви"
04. Таисия Повалий и Николай Басков "Ты далеко"
05. Николай Басков "Натуральный блондин"
06. Николай Басков "Все цветы"
07. Гайтана "Тайные желания"
08. Гайтана "Шахтер - Чемпион !"
09. Ани Лорак "Зажигай сердце"
10. Ани Лорак "Оранжевые сны"
11. Ани Лорак "Обними меня крепче"
12. Ёлка "Прованс"
13. Ёлка "Около тебя"
14. Ёлка "На большом воздушном шаре"
15. Джамала "It's me, Jamala"
16. Дискотека Авария "Все в зале"
17. Филипп Киркоров "Птица в груди"
18. Филипп Киркоров "Снег"
19. Филипп Киркоров "Просто подари"
20. Филипп Киркоров "Мне не жаль"
21. Все вместе "Гимн ФК Шахтер"


General
Complete name : Праздничный концерт ''Шахтер-Чемпион'' - (26.05.2013)_DVB by Kaddafi.mpg
Format : MPEG-PS
File size : 3.36 GiB
Duration : 1h 41mn
Overall bit rate mode : Variable
Overall bit rate : 4 750 Kbps
Video #224
ID : 224 (0xE0)
Format : MPEG Video
Format version : Version 2
Format profile : Main@Main
Format settings, BVOP : Yes
Format settings, Matrix : Custom
Format settings, GOP : Variable
Duration : 1h 41mn
Bit rate mode : Variable
Bit rate : 4 463 Kbps
Maximum bit rate : 15.0 Mbps
Width : 720 pixels
Height : 576 pixels
Display aspect ratio : 4:3
Frame rate : 25.000 fps
Standard : PAL
Color space : YUV
Chroma subsampling : 4:2:0
Bit depth : 8 bits
Scan type : Interlaced
Scan order : Top Field First
Compression mode : Lossy
Bits/(Pixel*Frame) : 0.430
Time code of first frame : 00:00:00:00
Time code source : Group of pictures header
Stream size : 3.15 GiB (94%)
Audio #192
ID : 192 (0xC0)
Format : MPEG Audio
Format version : Version 1
Format profile : Layer 2
Duration : 1h 41mn
Bit rate mode : Constant
Bit rate : 192 Kbps
Channel(s) : 1 channel
Sampling rate : 48.0 KHz
Compression mode : Lossy
Stream size : 139 MiB (4%)


Релиз от
Качество видео: DVB
Формат видео: MPEG
Видео кодек: MPEG2
Аудио кодек: MPEG1
Видео: MPEG2 Video 720x576 (4:3) 25.00fps 4 463 Kbps, 0.430 bit/pixel
Аудио: MPEG Audio 48000Hz 1 channal 192 Kbps



   Похожие торренты   Торрент   Размер 
В этой теме нет новых непрочитанных сообщений. Праздничный концерт к 35-летию АиФ (2013) SATRip

0 | 1

1 ГБ

В этой теме нет новых непрочитанных сообщений. Цветы и песни весны. Праздничный концерт (2013) DVB

2 | 8

4.23 ГБ

В этой теме нет новых непрочитанных сообщений. Цветы и песни весны. Праздничный концерт (2013) HDTVRip

11 | 4

1.45 ГБ

В этой теме нет новых непрочитанных сообщений. Цветы и песни весны. Праздничный концерт (2013) HDTV 1080i

256 | 2

5.83 ГБ

В этой теме нет новых непрочитанных сообщений. Праздничный концерт по случаю Дня Победы (Киев) (2013) SATRip от Files-x

3 | 4

1.36 ГБ

В этой теме нет новых непрочитанных сообщений. Праздничный концерт по случаю Дня Киева [1530 лет городу Киеву] (2013) DVB от Files-x

1 | 2

7.82 ГБ

В этой теме нет новых непрочитанных сообщений. День семьи, любви и верности. Праздничный концерт в Муроме (2013) SATRip от Files-x

26 | 15

1.65 ГБ




Вы не можете начинать темы
Вы не можете отвечать на сообщения
Вы не можете редактировать свои сообщения
Вы не можете удалять свои сообщения
Вы не можете добавлять вложения

Перейти:  
Для Мосгорсуда, Роскомнадзора и рекламодателей: mosgorsud-torrent[собачка]yandex.ru
 Вход
ppkBB3cker v.2 © 2008-2014 @ PPK
[ Time : 1.439s | 14 Queries | GZIP : Off ]

Торрент трекер RUTOR.IN, Не можете зайти на rutor.org? Какой новый адрес рутор? Какое зеркало рутор? Не работает rutor.org и зеркала? Тогда наш торрент специально для вас. Rutor.in неофициальное зеркало rutor. В случае если у Вас заблокирован rutor или вдруг Вы не можете на него зайти, то Вы без труда сможете скачать бесплатно и без рекламы последние новинки кино, игр, сериалов и прочего у нас, на Rutor.in. Не нужно использовать прокси, чтобы зайти на рутор, достаточно воспользоваться нашим ресурсом. Все новые фильмы, игры, сериалы, книги и музыка за 2013 и 2014 годы через торрент бесплатно. Скачивайте фильмы в хорошем качестве, игры для пк, xbox, playstation без регистрации. У нас вы найдете новые Зарубежные сериалы и Русские сериалы 2013, 2014, 2015 годов. Оставайтесь с нами, качайте любимые фильмы, игры, сериалы, книги и музыку.