img image001 image001 image001 image001 image001 image001 image001 image001 image001 image001 image001 image001 image001 image001 image001

Planets Sun Sun Sun
Статистика раздачи
Автор: Снежана | Размер: 364.58 МБ | Добавлен: 27 июл 2013
Раздают: 1    Качают: 32
Скачать торрент
Скачать торрент
Описание торрента

СообщениеДобавлено: 27 июл 2013 

#77

Информация о фильме
Название: Российские военные начала XX века: Из кавалеристов в главнокомандующие
Год выхода: 2008
Жанр: Документальный
Режиссер: Борис Некрушев

О фильме:
Герой Первой мировой войны, генерал Алексей Брусилов - блестящий полководец, задумавший и осуществивший легендарную операцию, почти переломившую ход войны.

Страна: Россия, ТВ100
Продолжительность: 00:26:29
Перевод: Не требуется

Файл
Кодек: XviD
Качество: SATRip
Видео: 720x512, 1790 Кбит/с, 25 кадр/с
Звук: MP3, 48,0 КГц, 2 канала, 128 Кбит/с
Субтитры: Нет

Семпл


K:киноIz.Kavaleristov.V.Glavnokomanduyuhie.XviD.SATRip.Generalfilm.avi
Format : AVI
Format/Info : Audio Video Interleave
File size : 365 MiB
Duration : 26mn 29s
Overall bit rate mode : Variable
Overall bit rate : 1 924 Kbps
Writing application : VirtualDubMod 1.5.10.3 | www.virtualdub-fr.org || (build 2550/release)
Writing library : VirtualDubMod build 2550/release
Video #0
ID : 0
Format : MPEG-4 Visual
Format profile : Advanced Simple@L5
Format settings, BVOP : 2
Format settings, QPel : No
Format settings, GMC : No warppoints
Format settings, Matrix : Default (H.263)
Codec ID : XVID
Codec ID/Hint : XviD
Duration : 26mn 29s
Bit rate : 1 790 Kbps
Width : 720 pixels
Height : 512 pixels
Display aspect ratio : 1.406
Frame rate : 25.000 fps
Color space : YUV
Chroma subsampling : 4:2:0
Bit depth : 8 bits
Scan type : Progressive
Compression mode : Lossy
Bits/(Pixel*Frame) : 0.194
Stream size : 339 MiB (93%)
Writing library : XviD 1.2.1 (UTC 2008-12-04)
Audio #1
ID : 1
Format : MPEG Audio
Format version : Version 1
Format profile : Layer 3
Codec ID : 55
Codec ID/Hint : MP3
Duration : 26mn 29s
Bit rate mode : Variable
Bit rate : 121 Kbps
Nominal bit rate : 128 Kbps
Channel(s) : 2 channels
Sampling rate : 48.0 KHz
Compression mode : Lossy
Stream size : 23.0 MiB (6%)
Alignment : Aligned on interleaves
Interleave, duration : 24 ms (0.60 video frame)
Interleave, preload duration : 538 ms
Writing library : LAME3.98r
Encoding settings : -m s -V 4 -q 2 -lowpass 17 --abr 128

Релиз от:



   Похожие торренты   Торрент   Размер 
В этой теме нет новых непрочитанных сообщений. Русские клипы конца 90-х начала XXI века (часть 1) () VHSRip

341 | 35

1.36 ГБ

В этой теме нет новых непрочитанных сообщений. Фотографии Москвы на открытках начала XX-го века [1775x2298-2352х1849] [107шт] (2011) JPG

258 | 12

49.89 МБ

В этой теме нет новых непрочитанных сообщений. Прокудин-Горский. Цветные фотографии Империи Российской начала XX века (2010) JPG

219 | 13

232.94 МБ

В этой теме нет новых непрочитанных сообщений. Фотографии Америки начала 20-го века [1056х1439-9349х2000] [970шт] (2012) JPG от cursant-777

330 | 9

637.93 МБ

В этой теме нет новых непрочитанных сообщений. Коллекция старинных карт и атласов (от Средневековья до начала 20 века) [1200x1800 - 17600x14000] [505 шт.] (2011) JPG, TIFF

28 | 6

1.1 ГБ

В этой теме нет новых непрочитанных сообщений. Фотографии начала ХХ века М.П. Дмитриева. Нижний Новгород и Нижегородская ярмарка [988х1468-1814х2540] [152шт.] (2011) JPG

100 | 7

89.45 МБ

В этой теме нет новых непрочитанных сообщений. Военные тайны Балкан. Освобождение Белграда (2014) SATRip от Generalfilm

36 | 21

550.95 МБ




Вы не можете начинать темы
Вы не можете отвечать на сообщения
Вы не можете редактировать свои сообщения
Вы не можете удалять свои сообщения
Вы не можете добавлять вложения

Перейти:  
Для Мосгорсуда, Роскомнадзора и рекламодателей: mosgorsud-torrent[собачка]yandex.ru
 Вход
ppkBB3cker v.2 © 2008-2014 @ PPK
[ Time : 0.063s | 14 Queries | GZIP : Off ]

Торрент трекер RUTOR.IN, Не можете зайти на rutor.org? Какой новый адрес рутор? Какое зеркало рутор? Не работает rutor.org и зеркала? Тогда наш торрент специально для вас. Rutor.in неофициальное зеркало rutor. В случае если у Вас заблокирован rutor или вдруг Вы не можете на него зайти, то Вы без труда сможете скачать бесплатно и без рекламы последние новинки кино, игр, сериалов и прочего у нас, на Rutor.in. Не нужно использовать прокси, чтобы зайти на рутор, достаточно воспользоваться нашим ресурсом. Все новые фильмы, игры, сериалы, книги и музыка за 2013 и 2014 годы через торрент бесплатно. Скачивайте фильмы в хорошем качестве, игры для пк, xbox, playstation без регистрации. У нас вы найдете новые Зарубежные сериалы и Русские сериалы 2013, 2014, 2015 годов. Оставайтесь с нами, качайте любимые фильмы, игры, сериалы, книги и музыку.