img image001 image001 image001 image001 image001 image001 image001 image001 image001 image001 image001 image001 image001 image001 image001

Planets Sun Sun Sun
Статистика раздачи
Автор: Снежана | Размер: 884.15 МБ | Добавлен: 27 июл 2013
Раздают: 7    Качают: 6
Скачать торрент
Скачать торрент
Описание торрента

СообщениеДобавлено: 27 июл 2013 

Год выпуска: 2012
Страна: Россия
Жанр: Документальный
Продолжительность: 00:43:48
Перевод: Не требуется
Режиссер: Руслан Божко, Игорь Малахов

Описание: На леднике Эльбруса в последний год альпинисты неожиданно стали находить останки советских солдат. Как они смогли дойти почти до вершины Эльбруса, не имея никакого альпинистского снаряжения, остается только гадать. Словно какая-то неведомая сила перенесла сюда целую роту прямо с равнины. Но кто эти люди? Что это была за битва? Исторические источники утверждают – серьезных боевых действий в именно этих местах в годы войны не было.
Даже первичные итоги расследования, предпринятого местными альпинистами и горноспасателями МЧС, были шокирующими: возможно, здесь 70 лет покоилась одна из тайн Великой Отечественной – почему мог провалиться тщательно проработанный гитлеровский план "Эдельвейс" по захвату Кавказа.
Известно, что именно на Эльбрусе остановился знаменитый отряд немецких горных егерей "Эдельвейс", которому была поставлена задача сходу преодолеть Главный Кавказский хребет, выйти в тыл советским войскам и начать там диверсионную войну.
Наших частей в Приэльбрусье не было. Это был стратегический просчет нашего командования, которым немцы и воспользовались. Однако гитлеровцы тоже совершили грубую военную ошибку. Вместо того чтобы выполнить приказ Гитлера – не сбавляя темпа, следовать к Черному морю и нефтеносным районам Кавказа, – они… отправились на покорение высочайшей вершины Европы, чтобы водрузить знамя Рейха. Именно Эльбрус нацистские идеологи считали священной горой ариев, в которой скрыт вход в легендарную Шамбалу. Но тем самым немецкий горный спецназ себя обнаружил. Эффект внезапности был потерян.
Из Москвы пришел категорический приказ уничтожить "Эдельвейсов" любой ценой, а сделать это было некому. В пожарном порядке была сформирована рота из… кавалеристов и тыловиков. Командиром ее стал лейтенант Григорьянц, еще недавно бывший дамским парикмахером. Именно эти люди ценой своей жизни остановили элитные горные части вермахта.
Чтобы восстановить картину событий, съемочная группа совместно с Эльбрусским отрядом МЧС впервые предприняла целенаправленную горную экспедицию по местам этих неизвестных боев. Авторы фильма обнаружили останки солдат этой героической роты, которые позднее были захоронены со всеми воинскими почестями, а также побывали в Германии, где удалось разыскать двух ветеранов горного спецназа вермахта, участвовавших в этом походе.

Качество: DVB
Формат: MPEG
Видео кодек: MPEG2
Аудио кодек: MPEG1 Layer 2
Видео: MPEG2 Video 720x576 (4:3) 25.00fps ~2 574 Kbps
Аудио: MPEG Audio 48000Hz 2 channels 192 Кбит/сек
C:\03__Моя планета444__МПЕГОперация Эдельвейс. Последняя тайна_DVB by kuzmichm2196 .mpg
General
Complete name : C:\03__Моя планета444__МПЕГОперация Эдельвейс. Последняя тайна_DVB by kuzmichm2196 .mpg
Format : MPEG-PS
File size : 884 MiB
Duration : 43mn 48s
Overall bit rate mode : Variable
Overall bit rate : 2 822 Kbps
Writing library : (c) 1998-2008 Womble Multimedia, Inc. / MPEG Video Wizard (08/2008) / Aug 25 2008
Video #224
ID : 224 (0xE0)
Format : MPEG Video
Format version : Version 2
Format profile : Main@Main
Format settings, BVOP : Yes
Format settings, Matrix : Custom
Format settings, GOP : M=3, N=21
Duration : 43mn 48s
Bit rate mode : Variable
Bit rate : 2 574 Kbps
Maximum bit rate : 15.0 Mbps
Width : 720 pixels
Height : 576 pixels
Display aspect ratio : 4:3
Frame rate : 25.000 fps
Standard : PAL
Color space : YUV
Chroma subsampling : 4:2:0
Bit depth : 8 bits
Scan type : Interlaced
Scan order : Top Field First
Compression mode : Lossy
Bits/(Pixel*Frame) : 0.248
Stream size : 806 MiB (91%)
Writing library : (c) 1998-2008 Womble Multimedia, Inc. / MPEG Video Wizard (08/2008) / Aug 25 2008
Audio #192
ID : 192 (0xC0)
Format : MPEG Audio
Format version : Version 1
Format profile : Layer 2
Duration : 43mn 48s
Bit rate mode : Constant
Bit rate : 192 Kbps
Channel(s) : 2 channels
Sampling rate : 48.0 KHz
Compression mode : Lossy
Delay relative to video : -80ms
Stream size : 60.2 MiB (7%)
Menu




   Похожие торренты   Торрент   Размер 
В этой теме нет новых непрочитанных сообщений. Операция Эдельвейс. Последняя тайна (2012) HDTVRip от Rulya74

915 | 66

603.6 МБ

В этой теме нет новых непрочитанных сообщений. Операция Эдельвейс. Последняя тайна (2012) HDTVRip (AVC) от Тorrent-Хzona

3 | 2

626.75 МБ

В этой теме нет новых непрочитанных сообщений. Титаник. Последняя тайна (2012) SATRip

9 | 13

517.22 МБ

В этой теме нет новых непрочитанных сообщений. Последняя миссия. Операция в Кабуле (2014) HDTVRip от MediaClub

30 | 65

659.53 МБ

В этой теме нет новых непрочитанных сообщений. Последняя миссия. Операция в Кабуле (2014) HDTV 1080p от MediaClub

86 | 65

1.98 ГБ

В этой теме нет новых непрочитанных сообщений. Последняя тайна Гитлера (2011) SATRip

10 | 4

974.44 МБ

В этой теме нет новых непрочитанных сообщений. Цилиндры фараонов. Последняя тайна (2010) IPTVRip от Pshichko66

61 | 3

701.05 МБ




Вы не можете начинать темы
Вы не можете отвечать на сообщения
Вы не можете редактировать свои сообщения
Вы не можете удалять свои сообщения
Вы не можете добавлять вложения

Перейти:  
Для Мосгорсуда, Роскомнадзора и рекламодателей: mosgorsud-torrent[собачка]yandex.ru
 Вход
ppkBB3cker v.2 © 2008-2014 @ PPK
[ Time : 0.030s | 14 Queries | GZIP : Off ]

Торрент трекер RUTOR.IN, Не можете зайти на rutor.org? Какой новый адрес рутор? Какое зеркало рутор? Не работает rutor.org и зеркала? Тогда наш торрент специально для вас. Rutor.in неофициальное зеркало rutor. В случае если у Вас заблокирован rutor или вдруг Вы не можете на него зайти, то Вы без труда сможете скачать бесплатно и без рекламы последние новинки кино, игр, сериалов и прочего у нас, на Rutor.in. Не нужно использовать прокси, чтобы зайти на рутор, достаточно воспользоваться нашим ресурсом. Все новые фильмы, игры, сериалы, книги и музыка за 2013 и 2014 годы через торрент бесплатно. Скачивайте фильмы в хорошем качестве, игры для пк, xbox, playstation без регистрации. У нас вы найдете новые Зарубежные сериалы и Русские сериалы 2013, 2014, 2015 годов. Оставайтесь с нами, качайте любимые фильмы, игры, сериалы, книги и музыку.