img image001 image001 image001 image001 image001 image001 image001 image001 image001 image001 image001 image001 image001 image001 image001

Planets Sun Sun Sun
Статистика раздачи
Автор: Снежана | Размер: 1.51 ГБ | Добавлен: 27 июл 2013
Раздают: 0    Качают: 1
Скачать торрент
Скачать торрент
Описание торрента

СообщениеДобавлено: 27 июл 2013 

Что? Где? Когда? - Летняя серия игр 2013 года - Игра вторая

Год выпуска: 2013
Страна: Россия
Жанр: Интеллектуальная игра
Продолжительность: 00:50:56
Перевод: Не требуется
Режиссер: Борис Крюк
Описание: Интеллектуальная викторина, наиболее распространённая в русскоязычной среде. Была создана в 1975 г. телеведущим Владимиром Ворошиловым. Игра очень быстро стала настолько популярной, что кроме оригинальной телевизионной версии появилась спортивная версия игры. Сущность игры заключается в противостоянии команды Знатоков (игровой команды из шести человек) команде Телезрителей. Знатоки должны за одну минуту при помощи мозгового штурма найти ответ на вопрос, присланный телезрителем. Как правило, игрокам задаются вопросы, ответить на которые можно с помощью общих знаний и логики. За каждый правильный ответ команда Знатоков получает одно очко, в случае неверного ответа очко начисляется команде Телезрителей. Игра ведётся до шести очков.
Команда Балаша Касумова:

1. Юлия Лазарева
2. Ровшан Аскеров
3. Михаил Скипский
4. Елизавета Овдеенко
5. Дмитрий Авдеенко
6. Балаш Касумов
Релиз: Doc66

Качество: DVB
Формат: MPG
Видео: MPEG-2; 720x576 (16:9)@1024x576, 25.00fps, ~3957 Kbps
Аудио: 48 kHz, 2 ch, 192 kbps, mp2

Общее
Полное имя : E:MPEGЧто Где Когда. Летняя Серия. Игра 2.(2013.06.01).2013.DVB.Doc66.mpg
Формат : MPEG-PS
Размер файла : 1,51 Гбайт
Продолжительность : 50 м.
Режим общего битрейта : Переменный
Общий поток : 4233 Кбит/сек

Видео
Идентификатор : 224 (0xE0)
Формат : MPEG Video
Версия формата : Version 2
Профиль формата : Main@Main
Параметр BVOP формата : Да
Параметр матрицы формата : Выборочная
Параметр GOP формата : M=3, N=36
Продолжительность : 50 м.
Вид битрейта : Переменный
Битрейт : 3957 Кбит/сек
Максимальный битрейт : 15,0 Мбит/сек
Ширина : 720 пикселей
Высота : 576 пикселей
Соотношение сторон : 16:9
Частота кадров : 25,000 кадров/сек
Стандарт вещания : PAL
Цветовое пространство : YUV
Субдискретизация насыщенности : 4:2:0
Битовая глубина : 8 бит
Тип развёртки : Чересстрочная
Порядок развёртки : Верхнее поле первое
Метод сжатия : С потерями
Бит/(Пиксели*Кадры) : 0.382
Размер потока : 1,41 Гбайт (93%)

Аудио
Идентификатор : 192 (0xC0)
Формат : MPEG Audio
Версия формата : Version 1
Профиль формата : Layer 2
Продолжительность : 50 м.
Вид битрейта : Постоянный
Битрейт : 192 Кбит/сек
Каналы : 2 канала
Частота : 48,0 КГц
Метод сжатия : С потерями
Размер потока : 70,0 Мбайт (5%)





   Похожие торренты   Торрент   Размер 
В этой теме нет новых непрочитанных сообщений. Что? Где? Когда? - Летняя серия игр 2013 года - Игра вторая (2013) HDTVRip

0 | 1

762.25 МБ

В этой теме нет новых непрочитанных сообщений. Что? Где? Когда? - Летняя серия игр 2013 года - Игра третья (2013) HDTVRip

1 | 1

885.35 МБ

В этой теме нет новых непрочитанных сообщений. Что? Где? Когда? - Летняя серия игр 2013 года - Игра первая (2013) DVB

0 | 1

1.15 ГБ

В этой теме нет новых непрочитанных сообщений. Что? Где? Когда? Летняя серия. Игра вторая (2011) IPTVRip

0 | 5

571.99 МБ

В этой теме нет новых непрочитанных сообщений. Что? Где? Когда? Летняя серия. Вторая игра (2010) SATRip

0 | 6

501.17 МБ

В этой теме нет новых непрочитанных сообщений. Что? Где? Когда? Летняя серия. Игра вторая [Эфир 07.06] (2015) HDTVRip от GeneralFilm

1105 | 43

978.6 МБ

В этой теме нет новых непрочитанных сообщений. Что? Где? Когда? Летняя серия. Игра вторая [Эфир 22.05] (2016) HDTV 1080i от GeneralFilm

47 | 0

3.4 ГБ




Вы не можете начинать темы
Вы не можете отвечать на сообщения
Вы не можете редактировать свои сообщения
Вы не можете удалять свои сообщения
Вы не можете добавлять вложения

Перейти:  
Для Мосгорсуда, Роскомнадзора и рекламодателей: mosgorsud-torrent[собачка]yandex.ru
 Вход
ppkBB3cker v.2 © 2008-2014 @ PPK
[ Time : 0.058s | 15 Queries | GZIP : Off ]

Торрент трекер RUTOR.IN, Не можете зайти на rutor.org? Какой новый адрес рутор? Какое зеркало рутор? Не работает rutor.org и зеркала? Тогда наш торрент специально для вас. Rutor.in неофициальное зеркало rutor. В случае если у Вас заблокирован rutor или вдруг Вы не можете на него зайти, то Вы без труда сможете скачать бесплатно и без рекламы последние новинки кино, игр, сериалов и прочего у нас, на Rutor.in. Не нужно использовать прокси, чтобы зайти на рутор, достаточно воспользоваться нашим ресурсом. Все новые фильмы, игры, сериалы, книги и музыка за 2013 и 2014 годы через торрент бесплатно. Скачивайте фильмы в хорошем качестве, игры для пк, xbox, playstation без регистрации. У нас вы найдете новые Зарубежные сериалы и Русские сериалы 2013, 2014, 2015 годов. Оставайтесь с нами, качайте любимые фильмы, игры, сериалы, книги и музыку.
cron