img image001 image001 image001 image001 image001 image001 image001 image001 image001 image001 image001 image001 image001 image001 image001

Planets Sun Sun Sun
Статистика раздачи
Автор: Снежана | Размер: 762.25 МБ | Добавлен: 27 июл 2013
Раздают: 0    Качают: 1
Скачать торрент
Скачать торрент
Описание торрента

СообщениеДобавлено: 27 июл 2013 

Что? Где? Когда? - Летняя серия игр 2013 года - Игра вторая

Год выпуска: 2013
Страна: Россия
Жанр: Интеллектуальная игра
Продолжительность: 00:50:56
Перевод: Не требуется
Режиссер: Борис Крюк
Описание: Интеллектуальная викторина, наиболее распространённая в русскоязычной среде. Была создана в 1975 г. телеведущим Владимиром Ворошиловым. Игра очень быстро стала настолько популярной, что кроме оригинальной телевизионной версии появилась спортивная версия игры. Сущность игры заключается в противостоянии команды Знатоков (игровой команды из шести человек) команде Телезрителей. Знатоки должны за одну минуту при помощи мозгового штурма найти ответ на вопрос, присланный телезрителем. Как правило, игрокам задаются вопросы, ответить на которые можно с помощью общих знаний и логики. За каждый правильный ответ команда Знатоков получает одно очко, в случае неверного ответа очко начисляется команде Телезрителей. Игра ведётся до шести очков.
Команда Балаша Касумова:

1. Юлия Лазарева
2. Ровшан Аскеров
3. Михаил Скипский
4. Елизавета Овдеенко
5. Дмитрий Авдеенко
6. Балаш Касумов
Релиз: olegka7373

качество: HDTVRip
формат: AVI
Видео: MPEG4, XviD, 704x400 (16:9), 25.000 fps, 1 898 Kbps (0.270 bit/pixel)
Аудио: AC-3, 48.0 KHz, 2 ch, 192 Kbps, CBR

D:DOWNLOADSFor TmDChto.Gde.Kogda.Letnyaya.Serija.Igr.2.(2013.06.01).HDTVRip.olegka7373.avi
General
Complete name : D:DOWNLOADSFor TmDChto.Gde.Kogda.Letnyaya.Serija.Igr.2.(2013.06.01).HDTVRip.olegka7373.avi
Format : AVI
Format/Info : Audio Video Interleave
File size : 762 MiB
Duration : 50mn 44s
Overall bit rate : 2 100 Kbps
Writing library : VirtualDub build 32507/release
Video #0
ID : 0
Format : MPEG-4 Visual
Format profile : AdvancedSimple@L5
Format settings, BVOP : Yes
Format settings, QPel : No
Format settings, GMC : No warppoints
Format settings, Matrix : Default (H.263)
Muxing mode : Packed bitstream
Codec ID : XVID
Codec ID/Hint : XviD
Duration : 50mn 44s
Bit rate : 1 898 Kbps
Width : 704 pixels
Height : 400 pixels
Display aspect ratio : 16:9
Frame rate : 25.000 fps
Resolution : 24 bits
Colorimetry : 4:2:0
Scan type : Progressive
Bits/(Pixel*Frame) : 0.270
Stream size : 689 MiB (90%)
Writing library : XviD 1.1.2 (UTC 2006-11-01)
Audio #1
ID : 1
Format : AC-3
Format/Info : Audio Coding 3
Codec ID : 2000
Duration : 50mn 44s
Bit rate mode : Constant
Bit rate : 192 Kbps
Channel(s) : 2 channels
Channel positions : L R
Sampling rate : 48.0 KHz
Stream size : 69.7 MiB (9%)
Alignment : Aligned on interleaves
Interleave, duration : 40 ms (1.00 video frame)
Interleave, preload duration : 512 ms




   Похожие торренты   Торрент   Размер 
В этой теме нет новых непрочитанных сообщений. Что? Где? Когда? - Летняя серия игр 2013 года - Игра вторая (2013) DVB

0 | 1

1.51 ГБ

В этой теме нет новых непрочитанных сообщений. Что? Где? Когда? - Летняя серия игр 2013 года - Игра третья (2013) HDTVRip

1 | 1

885.35 МБ

В этой теме нет новых непрочитанных сообщений. Что? Где? Когда? - Летняя серия игр 2013 года - Игра первая (2013) DVB

0 | 1

1.15 ГБ

В этой теме нет новых непрочитанных сообщений. Что? Где? Когда? Летняя серия. Игра вторая [Эфир 07.06] (2015) HDTVRip от GeneralFilm

1105 | 43

978.6 МБ

В этой теме нет новых непрочитанных сообщений. Что? Где? Когда? Летняя серия. Вторая игра (2010) SATRip

0 | 6

501.17 МБ

В этой теме нет новых непрочитанных сообщений. Что? Где? Когда? Летняя серия. Игра вторая (2011) IPTVRip

0 | 5

571.99 МБ

В этой теме нет новых непрочитанных сообщений. Что? Где? Когда? Летняя серия. Игра вторая (Эфир от 24.05.2014] (2014) HDTVRip от MediaClub

471 | 159

891.07 МБ




Вы не можете начинать темы
Вы не можете отвечать на сообщения
Вы не можете редактировать свои сообщения
Вы не можете удалять свои сообщения
Вы не можете добавлять вложения

Перейти:  
Для Мосгорсуда, Роскомнадзора и рекламодателей: mosgorsud-torrent[собачка]yandex.ru
 Вход
ppkBB3cker v.2 © 2008-2014 @ PPK
[ Time : 0.049s | 15 Queries | GZIP : On ]

Торрент трекер RUTOR.IN, Не можете зайти на rutor.org? Какой новый адрес рутор? Какое зеркало рутор? Не работает rutor.org и зеркала? Тогда наш торрент специально для вас. Rutor.in неофициальное зеркало rutor. В случае если у Вас заблокирован rutor или вдруг Вы не можете на него зайти, то Вы без труда сможете скачать бесплатно и без рекламы последние новинки кино, игр, сериалов и прочего у нас, на Rutor.in. Не нужно использовать прокси, чтобы зайти на рутор, достаточно воспользоваться нашим ресурсом. Все новые фильмы, игры, сериалы, книги и музыка за 2013 и 2014 годы через торрент бесплатно. Скачивайте фильмы в хорошем качестве, игры для пк, xbox, playstation без регистрации. У нас вы найдете новые Зарубежные сериалы и Русские сериалы 2013, 2014, 2015 годов. Оставайтесь с нами, качайте любимые фильмы, игры, сериалы, книги и музыку.
cron