img image001 image001 image001 image001 image001 image001 image001 image001 image001 image001 image001 image001 image001 image001 image001

Planets Sun Sun Sun
Статистика раздачи
Автор: Снежана | Размер: 636.34 МБ | Добавлен: 27 июл 2013
Раздают: 19    Качают: 5
Скачать торрент
Скачать торрент
Описание торрента

СообщениеДобавлено: 27 июл 2013 


Инфомация о фильме
Название: National Geographic.Дикий Запад. Ровно в полдень
Оригинальное название:National Geographic.The Wild West. High Noon
Год выхода: 2012
Жанр: Документальный.
Режиссер: Энди Митчел
О фильме
Пустыня она больше чем вы себе представляете и здесь хуже чем в аду, мы пытаемся покорить её, подчинить её, но она не поддается. Её обитателям приходится быть бандитами, героями, перебежчиками, преступниками. Среди них есть хорошие, плохие, и дикие...
Страна: США
Студия: National Geographic Television
Продолжительность: 00:45:00
Перевод: Дублированный
Файл
Формат: MKV
Качество: DVDRip-AVC
Видео: MPEG4 AVC 1024 x 576, 23.976 fps, 1750 - 1976 Кбит/сек
Звук: AC-3, 2 ch, 224 Кб/сек
Субтитры: Нет

General
Unique ID : 239793318782233917437291005956070759552 (0xB466836853FBB02695F97C0CF8F2DC80)
Complete name : D:DownloadsDikii.zapad.Rovno.v.polden.2012.x264.HDTVRip.(AVC).by.Тorrent-Хzona.torrent.mkv
Format : Matroska
Format version : Version 2
File size : 636 MiB
Duration : 45mn 1s
Overall bit rate : 1 976 Kbps
Encoded date : UTC 2013-06-01 11:51:19
Writing application : mkvmerge v6.1.0 ('Old Devil') built on Mar 4 2013 09:10:42
Writing library : libebml v1.3.0 + libmatroska v1.4.0
Video
ID : 1
Format : AVC
Format/Info : Advanced Video Codec
Format profile : High@L4.1
Format settings, CABAC : Yes
Format settings, ReFrames : 4 frames
Codec ID : V_MPEG4/ISO/AVC
Duration : 45mn 1s
Bit rate : 1 750 Kbps
Width : 1 024 pixels
Height : 576 pixels
Display aspect ratio : 16:9
Frame rate mode : Constant
Frame rate : 25.000 fps
Color space : YUV
Chroma subsampling : 4:2:0
Bit depth : 8 bits
Scan type : Progressive
Bits/(Pixel*Frame) : 0.119
Stream size : 552 MiB (87%)
Writing library : x264 core 130 r2273 b3065e6
Encoding settings : cabac=1 / ref=3 / deblock=1:-2:-2 / analyse=0x3:0x111 / me=umh / subme=9 / psy=1 / psy_rd=1.00:0.15 / mixed_ref=1 / me_range=32 / chroma_me=1 / trellis=2 / 8x8dct=1 / cqm=0 / deadzone=21,11 / fast_pskip=0 / chroma_qp_offset=-3 / threads=3 / lookahead_threads=1 / sliced_threads=0 / nr=0 / decimate=1 / interlaced=0 / bluray_compat=0 / constrained_intra=0 / bframes=3 / b_pyramid=2 / b_adapt=0 / b_bias=0 / direct=1 / weightb=1 / open_gop=0 / weightp=2 / keyint=250 / keyint_min=25 / scenecut=40 / intra_refresh=0 / rc_lookahead=50 / rc=2pass / mbtree=1 / bitrate=1750 / ratetol=1.0 / qcomp=0.60 / qpmin=0 / qpmax=69 / qpstep=4 / cplxblur=20.0 / qblur=0.5 / ip_ratio=1.40 / aq=1:1.00
Default : Yes
Forced : No
Audio
ID : 2
Format : AC-3
Format/Info : Audio Coding 3
Mode extension : CM (complete main)
Format settings, Endianness : Big
Codec ID : A_AC3
Duration : 45mn 1s
Bit rate mode : Constant
Bit rate : 224 Kbps
Channel(s) : 2 channels
Channel positions : Front: L R
Sampling rate : 48.0 KHz
Bit depth : 16 bits
Compression mode : Lossy
Stream size : 72.1 MiB (11%)
Default : Yes
Forced : No



Релиз от: &



   Похожие торренты   Торрент   Размер 
В этой теме нет новых непрочитанных сообщений. National Geographic: Дикий Запад. Звериный вестерн / National Geographic: The Wild West. True Grit (2012) HDTVRip-AVC от Тorrent-Хzona

40 | 5

627.62 МБ

В этой теме нет новых непрочитанных сообщений. National Geographic: Дикий Запад / National Geographic: The Wild West (2012) BDRip 720p

62 | 13

7.7 ГБ

В этой теме нет новых непрочитанных сообщений. National Geographic. Супер паук / National Geographic. Super Spider (2012) HDTVRip - AVC от Тorrent-Хzona

179 | 7

593.4 МБ

В этой теме нет новых непрочитанных сообщений. National Geographic - Рождение Солнечной системы / National Geographic - Birth of the solar system (2008) HDTVRip-AVC от Тorrent-Хzona

15 | 5

633.61 МБ

В этой теме нет новых непрочитанных сообщений. National Geographic: По следам святого Грааля / National Geographic: Quest for the Grail (2000) DVDRip-AVC от Тorrent-Хzona

5 | 1

732.5 МБ

В этой теме нет новых непрочитанных сообщений. National Geographic: Дикая природа России. Камчатка / National Geographic: Wild Russia. Kamchatka [02 из 06] (2009) HDTVRip от ExKinoRay

19 | 1

702.41 МБ

В этой теме нет новых непрочитанных сообщений. National Geographic: Дикая природа России. Сибирь / National Geographic: Wild Russia. Siberia [01 из 06] (2009) HDTVRip от ExKinoRay

45 | 5

699.41 МБ




Вы не можете начинать темы
Вы не можете отвечать на сообщения
Вы не можете редактировать свои сообщения
Вы не можете удалять свои сообщения
Вы не можете добавлять вложения

Перейти:  
Для Мосгорсуда, Роскомнадзора и рекламодателей: mosgorsud-torrent[собачка]yandex.ru
 Вход
ppkBB3cker v.2 © 2008-2014 @ PPK
[ Time : 0.044s | 15 Queries | GZIP : On ]

Торрент трекер RUTOR.IN, Не можете зайти на rutor.org? Какой новый адрес рутор? Какое зеркало рутор? Не работает rutor.org и зеркала? Тогда наш торрент специально для вас. Rutor.in неофициальное зеркало rutor. В случае если у Вас заблокирован rutor или вдруг Вы не можете на него зайти, то Вы без труда сможете скачать бесплатно и без рекламы последние новинки кино, игр, сериалов и прочего у нас, на Rutor.in. Не нужно использовать прокси, чтобы зайти на рутор, достаточно воспользоваться нашим ресурсом. Все новые фильмы, игры, сериалы, книги и музыка за 2013 и 2014 годы через торрент бесплатно. Скачивайте фильмы в хорошем качестве, игры для пк, xbox, playstation без регистрации. У нас вы найдете новые Зарубежные сериалы и Русские сериалы 2013, 2014, 2015 годов. Оставайтесь с нами, качайте любимые фильмы, игры, сериалы, книги и музыку.