img image001 image001 image001 image001 image001 image001 image001 image001 image001 image001 image001 image001 image001 image001 image001

Planets Sun Sun Sun
Статистика раздачи
Автор: Снежана | Размер: 722.71 МБ | Добавлен: 27 июл 2013
Раздают: 4    Качают: 2
Скачать торрент
Скачать торрент
Описание торрента

СообщениеДобавлено: 27 июл 2013 


Инфомация о фильме
Оригинальное название: Рига. Время Петра Великого
Год выхода: 2011
Жанр: Документальный, биография личности. история
Режиссер: Игорь Гусев
В ролях: Л.Ленц, И.Гусев
О фильме
Продолжение фильма "Латвийские русские: десять веков истории".
Жизнь великого российского реформатора остаётся одной из самых востребованных тем для многочисленных исследований. Но по-прежнему оказывается в тени интереснейшая страница биографии Петра I. Это история его знакомства и дальнейших отношений с "неприступной девственницей" Лифляндии, городом Ригой. В этих отношениях немало личного, и развивались они подобно многим отношениям в логичной последовательности "от ненависти до любви". Рига сыграла огромную роль в развитии мировоззрения Петра и, соответственно, велика её роль в истории России.
Драматична судьба памятника Петру Великому в Риге. В ней, как в капле воды, отразилось неоднозначное отношение к российскому Императору. Официальная латвийская история сегодня демонизирует личность "царя-оккупанта", противопоставляя этому миф о счастливых "Шведских временах", безвозвратно ушедших в результате победоносной для России Северной войны. Именно поэтому подлинная история Петра Великого как никогда современна не только для Прибалтики, но и для России.[/font]
Фильм состоит из 2-x частей: "Свидание с Европой" и "Наследие Императора".
Страна: Латвия
Продолжительность: 2 x ~ 00:26:00
Перевод: Не требуется
Файл
Формат: MKV
Качество: DVDRip-AVC
Видео: MPEG4 AVC 1024 x 576, 25.000 fps, 1750 - 1944 Кбит/сек
Звук: AC-3, 2 ch, 192 Кб/сек
Субтитры: Нет

General
Unique ID : 220592477039276167417878091405199808354 (0xA5F490D1F4522722AD8092051F861762)
Complete name : D:DownloadsСделанные фильмыRiga.Vremja.Petra.VelikogoСвидание с Европой.x264.DVDRip.(AVC).by.Тorrent-Хzona.mkv
Format : Matroska
Format version : Version 2
File size : 362 MiB
Duration : 26mn 0s
Overall bit rate : 1 944 Kbps
Encoded date : UTC 2013-06-03 01:23:34
Writing application : mkvmerge v6.1.0 ('Old Devil') built on Mar 4 2013 09:10:42
Writing library : libebml v1.3.0 + libmatroska v1.4.0
Video
ID : 1
Format : AVC
Format/Info : Advanced Video Codec
Format profile : High@L4.1
Format settings, CABAC : Yes
Format settings, ReFrames : 4 frames
Codec ID : V_MPEG4/ISO/AVC
Duration : 26mn 0s
Bit rate : 1 750 Kbps
Width : 1 024 pixels
Height : 576 pixels
Display aspect ratio : 16:9
Frame rate mode : Constant
Frame rate : 25.000 fps
Color space : YUV
Chroma subsampling : 4:2:0
Bit depth : 8 bits
Scan type : Progressive
Bits/(Pixel*Frame) : 0.119
Stream size : 319 MiB (88%)
Writing library : x264 core 130 r2273 b3065e6
Encoding settings : cabac=1 / ref=3 / deblock=1:-2:-2 / analyse=0x3:0x111 / me=umh / subme=9 / psy=1 / psy_rd=1.00:0.15 / mixed_ref=1 / me_range=32 / chroma_me=1 / trellis=2 / 8x8dct=1 / cqm=0 / deadzone=21,11 / fast_pskip=0 / chroma_qp_offset=-3 / threads=3 / lookahead_threads=1 / sliced_threads=0 / nr=0 / decimate=1 / interlaced=0 / bluray_compat=0 / constrained_intra=0 / bframes=3 / b_pyramid=2 / b_adapt=0 / b_bias=0 / direct=1 / weightb=1 / open_gop=0 / weightp=2 / keyint=250 / keyint_min=25 / scenecut=40 / intra_refresh=0 / rc_lookahead=50 / rc=2pass / mbtree=1 / bitrate=1750 / ratetol=1.0 / qcomp=0.60 / qpmin=0 / qpmax=69 / qpstep=4 / cplxblur=20.0 / qblur=0.5 / ip_ratio=1.40 / aq=1:1.00
Default : Yes
Forced : No
Audio
ID : 2
Format : AC-3
Format/Info : Audio Coding 3
Mode extension : CM (complete main)
Format settings, Endianness : Big
Codec ID : A_AC3
Duration : 26mn 0s
Bit rate mode : Constant
Bit rate : 192 Kbps
Channel(s) : 2 channels
Channel positions : Front: L R
Sampling rate : 48.0 KHz
Bit depth : 16 bits
Compression mode : Lossy
Stream size : 35.7 MiB (10%)
Default : Yes
Forced : No



Релиз от: &



   Похожие торренты   Торрент   Размер 
В этой теме нет новых непрочитанных сообщений. Рига. Жемчужина Прибалтики (1995) DVDRip-AVC от Тorrent-Хzona

3 | 3

440.75 МБ

В этой теме нет новых непрочитанных сообщений. Александр Пушкин - Арап Петра Великого (2006) MP3

70 | 4

83.38 МБ

В этой теме нет новых непрочитанных сообщений. Михаил Азаров - Тайны Петра Великого (2006) MP3

65 | 2

975.14 МБ

В этой теме нет новых непрочитанных сообщений. Из всех орудий [01-08 из 08] (2011) DVDRip-AVC от Тorrent-Хzona

17 | 6

3.5 ГБ

В этой теме нет новых непрочитанных сообщений. Ми-8. Великолепная *восьмёрка* (2011) DVDRip-AVC от Тorrent-Хzona

149 | 8

1.04 ГБ

В этой теме нет новых непрочитанных сообщений. Великая война [01-18 из 18] (2011) DVDRip-AVC от Тorrent-Хzona

229 | 11

10.48 ГБ

В этой теме нет новых непрочитанных сообщений. Эра технотронной диктатуры (2011) DVDRip от Тorrent-Хzona

1 | 2

2 ГБ




Вы не можете начинать темы
Вы не можете отвечать на сообщения
Вы не можете редактировать свои сообщения
Вы не можете удалять свои сообщения
Вы не можете добавлять вложения

Перейти:  
Для Мосгорсуда, Роскомнадзора и рекламодателей: mosgorsud-torrent[собачка]yandex.ru
 Вход
ppkBB3cker v.2 © 2008-2014 @ PPK
[ Time : 0.570s | 14 Queries | GZIP : Off ]

Торрент трекер RUTOR.IN, Не можете зайти на rutor.org? Какой новый адрес рутор? Какое зеркало рутор? Не работает rutor.org и зеркала? Тогда наш торрент специально для вас. Rutor.in неофициальное зеркало rutor. В случае если у Вас заблокирован rutor или вдруг Вы не можете на него зайти, то Вы без труда сможете скачать бесплатно и без рекламы последние новинки кино, игр, сериалов и прочего у нас, на Rutor.in. Не нужно использовать прокси, чтобы зайти на рутор, достаточно воспользоваться нашим ресурсом. Все новые фильмы, игры, сериалы, книги и музыка за 2013 и 2014 годы через торрент бесплатно. Скачивайте фильмы в хорошем качестве, игры для пк, xbox, playstation без регистрации. У нас вы найдете новые Зарубежные сериалы и Русские сериалы 2013, 2014, 2015 годов. Оставайтесь с нами, качайте любимые фильмы, игры, сериалы, книги и музыку.