img image001 image001 image001 image001 image001 image001 image001 image001 image001 image001 image001 image001 image001 image001 image001

Planets Sun Sun Sun
Статистика раздачи
Автор: Снежана | Размер: 4.21 ГБ | Добавлен: 27 июл 2013
Раздают: 12    Качают: 4
Скачать торрент
Скачать торрент
Описание торрента

СообщениеДобавлено: 27 июл 2013 


Инфомация о фильме
Название:BBC: Вторая мировая война. За закрытыми дверьми
Оригинальное название:BBC:World War Two - Behind Closed Doors
Год выхода: 2008
Жанр: Документальный, биография личности. история
Режиссер: Лоуренс Риз, Эндрю Уильямс
В ролях: Кит Дэвид, Боб Гантон, Пол Хамполец, Алексей Петренко, Валерий Жаков
О фильме
Данный цикл рассказывает истинную историю о столкновениях Сталина сначала с нацистами, а затем с Черчиллем и Рузвельтом, а также о том, какое огромное влияние оказали эти события на Вторую Мировую Войну, а позже и на судьбу всей послевоенной Европы. Фильм представляет собой захватывающее сочетание высокой политики — включая историю о встречах союзников в Тегеране, Ялте и Потсдаме — и драматического опыта тех личностей, которые на себе несли последствия принятых решений.
Невообразимые трагические факты, взятые из архивных материалов, раскрывают события, во время которых великие лидеры решали судьбу послевоенного мира. Эти решения имели мгновенный и зачастую ужасающий эффект на простых жителей. Подробности этой истории будут раскрыты с помощью документальных архивных съемок и откровенных интервью бывших советских милиционеров, моряков, служивших в арктических конвоях, и ветеранов Красной Армии, участвовавших в сражениях на восточном фронте.

Страна: Великобритания, Польша
Студия: BBC Television Centre
Продолжительность: 6 x ~ 00:52:10
Перевод: Профессиональный (одноголосый)
Файл
Формат: MKV
Качество: DVDRip-AVC
Видео: MPEG4 AVC 1024 x 576, 25.000 fps, 1750 - 1942 Кбит/сек
Звук: AC-3, 2 ch, 192 Кб/сек
Субтитры: Нет

General
Unique ID : 233214460289708996733863970370434255865 (0xAF7378A413893C669AF18D800E064BF9)
Complete name : C:DownloadsVtoraja.mirovaja.vojna.Za.zakrytymi.dverjami.2008.x264.DVDRip.(AVC).by.Тorrent-Хzona2.disk.mkv
Format : Matroska
Format version : Version 2
File size : 2.09 GiB
Duration : 2h 34mn
Overall bit rate : 1 942 Kbps
Encoded date : UTC 2013-06-02 23:46:59
Writing application : mkvmerge v6.1.0 ('Old Devil') built on Mar 4 2013 09:10:42
Writing library : libebml v1.3.0 + libmatroska v1.4.0
Video
ID : 1
Format : AVC
Format/Info : Advanced Video Codec
Format profile : High@L4.1
Format settings, CABAC : Yes
Format settings, ReFrames : 4 frames
Codec ID : V_MPEG4/ISO/AVC
Duration : 2h 34mn
Bit rate : 1 750 Kbps
Width : 1 024 pixels
Height : 576 pixels
Display aspect ratio : 16:9
Frame rate mode : Constant
Frame rate : 25.000 fps
Color space : YUV
Chroma subsampling : 4:2:0
Bit depth : 8 bits
Scan type : Progressive
Bits/(Pixel*Frame) : 0.119
Stream size : 1.84 GiB (88%)
Writing library : x264 core 130 r2273 b3065e6
Encoding settings : cabac=1 / ref=3 / deblock=1:-2:-2 / analyse=0x3:0x111 / me=umh / subme=9 / psy=1 / psy_rd=1.00:0.15 / mixed_ref=1 / me_range=32 / chroma_me=1 / trellis=2 / 8x8dct=1 / cqm=0 / deadzone=21,11 / fast_pskip=0 / chroma_qp_offset=-3 / threads=12 / lookahead_threads=1 / sliced_threads=0 / nr=0 / decimate=1 / interlaced=0 / bluray_compat=0 / constrained_intra=0 / bframes=3 / b_pyramid=2 / b_adapt=0 / b_bias=0 / direct=1 / weightb=1 / open_gop=0 / weightp=2 / keyint=250 / keyint_min=25 / scenecut=40 / intra_refresh=0 / rc_lookahead=50 / rc=2pass / mbtree=1 / bitrate=1750 / ratetol=1.0 / qcomp=0.60 / qpmin=0 / qpmax=69 / qpstep=4 / cplxblur=20.0 / qblur=0.5 / ip_ratio=1.40 / aq=1:1.00
Default : Yes
Forced : No
Audio
ID : 2
Format : AC-3
Format/Info : Audio Coding 3
Mode extension : CM (complete main)
Format settings, Endianness : Big
Codec ID : A_AC3
Duration : 2h 34mn
Bit rate mode : Constant
Bit rate : 192 Kbps
Channel(s) : 2 channels
Channel positions : Front: L R
Sampling rate : 48.0 KHz
Bit depth : 16 bits
Compression mode : Lossy
Stream size : 212 MiB (10%)
Default : Yes
Forced : No



Релиз от:



   Похожие торренты   Торрент   Размер 
В этой теме нет новых непрочитанных сообщений. Вторая мировая война. За закрытыми дверьми / World War Two. Behind Closed Doors [01-06] (2008) DVDRip

60 | 4

3.73 ГБ

В этой теме нет новых непрочитанных сообщений. СПИД: За закрытыми дверьми / AIDS: Behind Closed Doors (1995) SATRip

3 | 2

500.07 МБ

В этой теме нет новых непрочитанных сообщений. Жан-Клод Ван Дамм: За закрытыми дверями / Jean Claude Van Damme: Behind Closed Doors [01-08 из 08] (2011) HDTVRip | A

1437 | 306

3.07 ГБ

В этой теме нет новых непрочитанных сообщений. Жан-Клод Ван Дамм: За закрытыми дверями / Jean Claude Van Damme: Behind Closed Doors [01-08 из 08] (2011) BDRip 720p | A

88 | 97

16.48 ГБ

В этой теме нет новых непрочитанных сообщений. Апокалипсис: Вторая мировая война / Apocalypse: The Second World War [01-06 из 06] (2009) HDTVRip

40 | 47

2.21 ГБ

В этой теме нет новых непрочитанных сообщений. Апокалипсис: Вторая Мировая война / Apocalypse: The Second World [01-06 из 06] (2009) HDRip от KinoZalSat

84 | 9

4.1 ГБ

В этой теме нет новых непрочитанных сообщений. Великая Отечественная война / World War II, The Eastern front [01-03 из 03] (1993 ) DVDRip-AVC от Тorrent-Хzona

9 | 3

2.07 ГБ




Вы не можете начинать темы
Вы не можете отвечать на сообщения
Вы не можете редактировать свои сообщения
Вы не можете удалять свои сообщения
Вы не можете добавлять вложения

Перейти:  
Для Мосгорсуда, Роскомнадзора и рекламодателей: mosgorsud-torrent[собачка]yandex.ru
 Вход
ppkBB3cker v.2 © 2008-2014 @ PPK
[ Time : 0.575s | 15 Queries | GZIP : Off ]

Торрент трекер RUTOR.IN, Не можете зайти на rutor.org? Какой новый адрес рутор? Какое зеркало рутор? Не работает rutor.org и зеркала? Тогда наш торрент специально для вас. Rutor.in неофициальное зеркало rutor. В случае если у Вас заблокирован rutor или вдруг Вы не можете на него зайти, то Вы без труда сможете скачать бесплатно и без рекламы последние новинки кино, игр, сериалов и прочего у нас, на Rutor.in. Не нужно использовать прокси, чтобы зайти на рутор, достаточно воспользоваться нашим ресурсом. Все новые фильмы, игры, сериалы, книги и музыка за 2013 и 2014 годы через торрент бесплатно. Скачивайте фильмы в хорошем качестве, игры для пк, xbox, playstation без регистрации. У нас вы найдете новые Зарубежные сериалы и Русские сериалы 2013, 2014, 2015 годов. Оставайтесь с нами, качайте любимые фильмы, игры, сериалы, книги и музыку.
cron