img image001 image001 image001 image001 image001 image001 image001 image001 image001 image001 image001 image001 image001 image001 image001

Planets Sun Sun Sun
Статистика раздачи
Автор: Снежана | Размер: 724.35 МБ | Добавлен: 27 июл 2013
Раздают: 11    Качают: 3
Скачать торрент
Скачать торрент
Описание торрента

СообщениеДобавлено: 27 июл 2013 


Инфомация о фильме
Название: Discovery: Экстремальные машины: Вертолеты
Оригинальное название: Discovery: Extreme machines: Choppers
Год выхода: 1996
Жанр: Документальный
Режиссер: Хью Уитворт
О фильме
Вертолет является самым функциональным летательным аппаратом в мире. Шедевр технического прогресса участвовал не только в военных действиях, но и в современных авиа-шоу. История вертолета началась с испытаний Игоря Сикорского по вертикальному подъему воздушного судна в 1939 году. Сегодня, это одна из самых технически совершенных машин, которую активно используют как в военных, так и в гражданских целях. Ученые всегда хотели создать летательный аппарат, объединяющий в себе способности вертикального подъема вертолета и свойства высокоскоростных самолетов. У Вас есть уникальная возможность увидеть изобретение ученых - экспериментальный космический аппарат «Roton», который взлетает как ракета и приземляется с помощью вертолетного винта..
Страна: США
Студия: Discovery
Продолжительность: 00:52:05
Перевод: Не требуется
Файл
Формат: MKV
Качество: DVDRip-AVC
Видео: MPEG4 AVC 768 x 576, 25.000 fps, 1750 - 1944 Кбит/сек
Звук: AC-3, 2 ch, 192 Кб/сек
Субтитры: Нет

General
Unique ID : 209559508937048304653159586898570524966 (0x9DA7B17EAF1B4B498FCDE9E3002E3926)
Complete name : D:DownloadsVertoleti.1996.x264.DVDRip.(AVC).by.Тorrent-Хzona.mkv
Format : Matroska
Format version : Version 2
File size : 724 MiB
Duration : 52mn 5s
Overall bit rate : 1 944 Kbps
Encoded date : UTC 2013-06-03 07:39:28
Writing application : mkvmerge v6.1.0 ('Old Devil') built on Mar 4 2013 09:10:42
Writing library : libebml v1.3.0 + libmatroska v1.4.0
Video
ID : 1
Format : AVC
Format/Info : Advanced Video Codec
Format profile : High@L4.1
Format settings, CABAC : Yes
Format settings, ReFrames : 4 frames
Codec ID : V_MPEG4/ISO/AVC
Duration : 52mn 5s
Bit rate : 1 750 Kbps
Width : 768 pixels
Height : 576 pixels
Display aspect ratio : 4:3
Frame rate mode : Constant
Frame rate : 25.000 fps
Color space : YUV
Chroma subsampling : 4:2:0
Bit depth : 8 bits
Scan type : Progressive
Bits/(Pixel*Frame) : 0.158
Stream size : 638 MiB (88%)
Writing library : x264 core 130 r2273 b3065e6
Encoding settings : cabac=1 / ref=3 / deblock=1:-2:-2 / analyse=0x3:0x111 / me=umh / subme=9 / psy=1 / psy_rd=1.00:0.15 / mixed_ref=1 / me_range=32 / chroma_me=1 / trellis=2 / 8x8dct=1 / cqm=0 / deadzone=21,11 / fast_pskip=0 / chroma_qp_offset=-3 / threads=3 / lookahead_threads=1 / sliced_threads=0 / nr=0 / decimate=1 / interlaced=0 / bluray_compat=0 / constrained_intra=0 / bframes=3 / b_pyramid=2 / b_adapt=0 / b_bias=0 / direct=1 / weightb=1 / open_gop=0 / weightp=2 / keyint=250 / keyint_min=25 / scenecut=40 / intra_refresh=0 / rc_lookahead=50 / rc=2pass / mbtree=1 / bitrate=1750 / ratetol=1.0 / qcomp=0.60 / qpmin=0 / qpmax=69 / qpstep=4 / cplxblur=20.0 / qblur=0.5 / ip_ratio=1.40 / aq=1:1.00
Default : Yes
Forced : No
Audio
ID : 2
Format : AC-3
Format/Info : Audio Coding 3
Format profile : Dolby Digital
Mode extension : CM (complete main)
Format settings, Endianness : Big
Codec ID : A_AC3
Duration : 52mn 5s
Bit rate mode : Constant
Bit rate : 192 Kbps
Channel(s) : 2 channels
Channel positions : Front: L R
Sampling rate : 48.0 KHz
Bit depth : 16 bits
Compression mode : Lossy
Stream size : 71.5 MiB (10%)
Default : Yes
Forced : No



Релиз от: &



   Похожие торренты   Торрент   Размер 
В этой теме нет новых непрочитанных сообщений. Discovery: Экстремальные машины / Discovery: Extreme Machines [01-12 из 12] (1996-2004) DVDRip

36 | 17

8.21 ГБ

В этой теме нет новых непрочитанных сообщений. Discovery Channel: Экстремальные машины. Стальные колеса / Extreme machines. Wheels of steel (1996) DVDRip - LTarik

1 | 2

699.88 МБ

В этой теме нет новых непрочитанных сообщений. Экстремальные машины. Военные самолеты / Discovery. Extreme Machines. Military Planes (2003) DVDRip от -=HD-NET=-

87 | 28

600.99 МБ

В этой теме нет новых непрочитанных сообщений. Discovery Channel: Экстремальные машины. Мега-Грузовики / Extreme machines: Mega Trucks (1997) DVDRip - LTarik

7 | 3

688.34 МБ

В этой теме нет новых непрочитанных сообщений. Discovery: Экстремальные машины: Моторы за миллион долларов / Extrime machines: Million $ motors (2003) DVDRip

1 | 2

700.91 МБ

В этой теме нет новых непрочитанных сообщений. Discovery: Завоеватели / Discovery: Conquerors [01-04 из 04] (1996) DVDRip-AVC от Тorrent-Хzona

15 | 6

2.71 ГБ

В этой теме нет новых непрочитанных сообщений. Экстремальные машины Аляски / Alaska's Extreme Machines (2009) SATRip

4 | 2

808.46 МБ




Вы не можете начинать темы
Вы не можете отвечать на сообщения
Вы не можете редактировать свои сообщения
Вы не можете удалять свои сообщения
Вы не можете добавлять вложения

Перейти:  
Для Мосгорсуда, Роскомнадзора и рекламодателей: mosgorsud-torrent[собачка]yandex.ru
 Вход
ppkBB3cker v.2 © 2008-2014 @ PPK
[ Time : 2.859s | 14 Queries | GZIP : Off ]

Торрент трекер RUTOR.IN, Не можете зайти на rutor.org? Какой новый адрес рутор? Какое зеркало рутор? Не работает rutor.org и зеркала? Тогда наш торрент специально для вас. Rutor.in неофициальное зеркало rutor. В случае если у Вас заблокирован rutor или вдруг Вы не можете на него зайти, то Вы без труда сможете скачать бесплатно и без рекламы последние новинки кино, игр, сериалов и прочего у нас, на Rutor.in. Не нужно использовать прокси, чтобы зайти на рутор, достаточно воспользоваться нашим ресурсом. Все новые фильмы, игры, сериалы, книги и музыка за 2013 и 2014 годы через торрент бесплатно. Скачивайте фильмы в хорошем качестве, игры для пк, xbox, playstation без регистрации. У нас вы найдете новые Зарубежные сериалы и Русские сериалы 2013, 2014, 2015 годов. Оставайтесь с нами, качайте любимые фильмы, игры, сериалы, книги и музыку.