img image001 image001 image001 image001 image001 image001 image001 image001 image001 image001 image001 image001 image001 image001 image001

Planets Sun Sun Sun
Статистика раздачи
Автор: Снежана | Размер: 1.04 ГБ | Добавлен: 27 июл 2013
Раздают: 149    Качают: 8
Скачать торрент
Скачать торрент
Описание торрента

СообщениеДобавлено: 27 июл 2013 


Инфомация о фильме
Оригинальное название: Ми-8. Великолепная "восьмёрка"
Год выхода: 2011
Жанр: Документальный
Режиссер: Алексей Романов
О фильме
Фильм посвящён легендарному отечественному вертолёту Ми-8 и рассказывает о прошлом, настоящем и будущем этой знаменитой машины. Уникальные кадры хроники, трёхмерная компьютерная графика, интервью с конструкторами, специалистами и лётчиками. Русский дикторский текст читал Народный артист России Александр Клюквин.
Количество частей - 2. Продолжительность каждой части - 38 минут.

Страна:Россия
Студия: студии "Крылья России"
Продолжительность: 2 Х 00:38:08
Перевод: Не требуется
Файл
Формат: MKV
Качество: DVDRip-AVC
Видео: MPEG4 AVC 1024 x 544, 25.000 fps, 1750 - 1943 Кбит/сек
Звук: AC-3, 2 ch, 192 Кб/сек
Субтитры: Нет

General
Unique ID : 179097555191133302254276099595286643037 (0x86BCEF382CD753928A58D383AEA8815D)
Complete name : D:DownloadsMI-8.2011.x264.DVDRip.(AVC).by.Тorrent-Хzona2.Серия.mkv
Format : Matroska
Format version : Version 2
File size : 531 MiB
Duration : 38mn 11s
Overall bit rate : 1 943 Kbps
Encoded date : UTC 2013-06-07 04:38:37
Writing application : mkvmerge v6.1.0 ('Old Devil') built on Mar 4 2013 09:10:42
Writing library : libebml v1.3.0 + libmatroska v1.4.0
Video
ID : 1
Format : AVC
Format/Info : Advanced Video Codec
Format profile : High@L4.1
Format settings, CABAC : Yes
Format settings, ReFrames : 4 frames
Codec ID : V_MPEG4/ISO/AVC
Duration : 38mn 11s
Bit rate : 1 750 Kbps
Width : 1 024 pixels
Height : 544 pixels
Display aspect ratio : 1.882
Frame rate mode : Constant
Frame rate : 25.000 fps
Color space : YUV
Chroma subsampling : 4:2:0
Bit depth : 8 bits
Scan type : Progressive
Bits/(Pixel*Frame) : 0.126
Stream size : 468 MiB (88%)
Writing library : x264 core 130 r2273 b3065e6
Encoding settings : cabac=1 / ref=3 / deblock=1:-2:-2 / analyse=0x3:0x111 / me=umh / subme=9 / psy=1 / psy_rd=1.00:0.15 / mixed_ref=1 / me_range=32 / chroma_me=1 / trellis=2 / 8x8dct=1 / cqm=0 / deadzone=21,11 / fast_pskip=0 / chroma_qp_offset=-3 / threads=3 / lookahead_threads=1 / sliced_threads=0 / nr=0 / decimate=1 / interlaced=0 / bluray_compat=0 / constrained_intra=0 / bframes=3 / b_pyramid=2 / b_adapt=0 / b_bias=0 / direct=1 / weightb=1 / open_gop=0 / weightp=2 / keyint=250 / keyint_min=25 / scenecut=40 / intra_refresh=0 / rc_lookahead=50 / rc=2pass / mbtree=1 / bitrate=1750 / ratetol=1.0 / qcomp=0.60 / qpmin=0 / qpmax=69 / qpstep=4 / cplxblur=20.0 / qblur=0.5 / ip_ratio=1.40 / aq=1:1.00
Default : Yes
Forced : No
Audio
ID : 2
Format : AC-3
Format/Info : Audio Coding 3
Mode extension : CM (complete main)
Format settings, Endianness : Big
Codec ID : A_AC3
Duration : 38mn 11s
Bit rate mode : Constant
Bit rate : 192 Kbps
Channel(s) : 2 channels
Channel positions : Front: L R
Sampling rate : 48.0 KHz
Bit depth : 16 bits
Compression mode : Lossy
Stream size : 52.5 MiB (10%)
Default : Yes
Forced : No



Релиз от: &



   Похожие торренты   Торрент   Размер 
В этой теме нет новых непрочитанных сообщений. Ми-8. Великолепная "восьмёрка" (2011) DVDRip от -=HD-NET=-

19 | 3

1001.61 МБ

В этой теме нет новых непрочитанных сообщений. Бильярд. Великолепная Восьмерка в Санкт-Петербурге. Финал (2010) SATRip

7 | 2

1.57 ГБ

В этой теме нет новых непрочитанных сообщений. Эра технотронной диктатуры (2011) DVDRip от Тorrent-Хzona

1 | 2

2 ГБ

В этой теме нет новых непрочитанных сообщений. Великая война [01-18 из 18] (2011) DVDRip-AVC от Тorrent-Хzona

229 | 11

10.48 ГБ

В этой теме нет новых непрочитанных сообщений. Из всех орудий [01-08 из 08] (2011) DVDRip-AVC от Тorrent-Хzona

17 | 6

3.5 ГБ

В этой теме нет новых непрочитанных сообщений. Отечественное стрелковое оружие [01-08 из 08] (2011) DVDRip-AVC от Тorrent-Хzona

51 | 12

3.89 ГБ

В этой теме нет новых непрочитанных сообщений. Животные-строители / Animal builders [1- 3 из 3] (2011) DVDRip (AVC) от Тorrent-Хzona

5 | 5

2.41 ГБ




Вы не можете начинать темы
Вы не можете отвечать на сообщения
Вы не можете редактировать свои сообщения
Вы не можете удалять свои сообщения
Вы не можете добавлять вложения

Перейти:  
Для Мосгорсуда, Роскомнадзора и рекламодателей: mosgorsud-torrent[собачка]yandex.ru
 Вход
ppkBB3cker v.2 © 2008-2014 @ PPK
[ Time : 0.054s | 14 Queries | GZIP : Off ]

Торрент трекер RUTOR.IN, Не можете зайти на rutor.org? Какой новый адрес рутор? Какое зеркало рутор? Не работает rutor.org и зеркала? Тогда наш торрент специально для вас. Rutor.in неофициальное зеркало rutor. В случае если у Вас заблокирован rutor или вдруг Вы не можете на него зайти, то Вы без труда сможете скачать бесплатно и без рекламы последние новинки кино, игр, сериалов и прочего у нас, на Rutor.in. Не нужно использовать прокси, чтобы зайти на рутор, достаточно воспользоваться нашим ресурсом. Все новые фильмы, игры, сериалы, книги и музыка за 2013 и 2014 годы через торрент бесплатно. Скачивайте фильмы в хорошем качестве, игры для пк, xbox, playstation без регистрации. У нас вы найдете новые Зарубежные сериалы и Русские сериалы 2013, 2014, 2015 годов. Оставайтесь с нами, качайте любимые фильмы, игры, сериалы, книги и музыку.