img image001 image001 image001 image001 image001 image001 image001 image001 image001 image001 image001 image001 image001 image001 image001

Planets Sun Sun Sun
Статистика раздачи
Автор: Снежана | Размер: 2.68 ГБ | Добавлен: 27 июл 2013
Раздают: 1    Качают: 3
Скачать торрент
Скачать торрент
Описание торрента

СообщениеДобавлено: 27 июл 2013 


Инфомация о фильме
Название: Discovery: Страсти по насекомым / Насекомые
Оригинальное название: Discovery: Insectia
Год выхода: 1999
Жанр: Документальный, флора
Режиссер: Герман Гутеррес
В ролях: Джордж Броссар
О фильме
Снятый по строгим научным стандартам, сериал "Страсти по насекомым" один из самых лучших образовательных фильмов по энтомологии - науке, изучающей насекомых. Несомненно, заслуга в этом выдающегося популяризатора и прекрасного рассказчика Джорджа Броссара. После пятнадцатилетней карьеры нотариуса в возрасте 38 лет Броссар оставляет это скучное занятие и становится страстным коллекционером насекомых. Этому делу он посвятил более 20 лет, а его огромная коллекция послужила основой для создания Монреальского инсектария - самого большого в мире центра по содержанию и изучению насекомых.


1. Водяные насекомые (Aquatic Insects)
2. Жизнь на одном дереве (Life in a Single Tree)
3. Жизнь в пустыне (Life in the Desert)
4. Мастера маскировки (Masquerade)
5. Насекомые вне закона (Outlaws)
6. Скорпионы (Scorpions)
7. Великий Альянс (The Grand Alliance)
8. Остров ткачей (Weavers Island)

Страна: Канада - Франия
Студия: Discovery
Продолжительность: 8 x ~ 00:26:00
Перевод: Профессиональный (одноголосый закадровый)
Файл
Формат: MKV
Качество: HDTVRip-AVC
Видео: MPEG4 AVC 1024 x 560, 29.970 fps, 1750 - 1880 Кбит/сек
Звук: AC-3, 1 ch, 128 Кбит/сек
Субтитры: Нет

General
Unique ID : 211924916890635492276843373321072850292 (0x9F6F411C6F8D58FCB203572B6DE6B574)
Complete name : C:DownloadsГотовые фильмыDiscovery.Channel.Insectia.1999.x264.HDTVRip.(AVC).by.Тorrent-ХzonaInsectia.Aquatic.Insects.1999.x264.HDTVRip.(AVC).by.Тorrent-Хzona.mkv
Format : Matroska
Format version : Version 2
File size : 348 MiB
Duration : 25mn 53s
Overall bit rate : 1 880 Kbps
Encoded date : UTC 2013-06-08 23:17:38
Writing application : mkvmerge v6.1.0 ('Old Devil') built on Mar 4 2013 09:10:42
Writing library : libebml v1.3.0 + libmatroska v1.4.0
Video
ID : 1
Format : AVC
Format/Info : Advanced Video Codec
Format profile : High@L4.1
Format settings, CABAC : Yes
Format settings, ReFrames : 4 frames
Codec ID : V_MPEG4/ISO/AVC
Duration : 25mn 53s
Bit rate : 1 750 Kbps
Width : 1 024 pixels
Height : 560 pixels
Display aspect ratio : 1.85:1
Frame rate mode : Constant
Frame rate : 29.970 fps
Color space : YUV
Chroma subsampling : 4:2:0
Bit depth : 8 bits
Scan type : Progressive
Bits/(Pixel*Frame) : 0.102
Stream size : 317 MiB (91%)
Writing library : x264 core 130 r2273 b3065e6
Encoding settings : cabac=1 / ref=3 / deblock=1:-2:-2 / analyse=0x3:0x111 / me=umh / subme=9 / psy=1 / psy_rd=1.00:0.15 / mixed_ref=1 / me_range=32 / chroma_me=1 / trellis=2 / 8x8dct=1 / cqm=0 / deadzone=21,11 / fast_pskip=0 / chroma_qp_offset=-3 / threads=12 / lookahead_threads=1 / sliced_threads=0 / nr=0 / decimate=1 / interlaced=0 / bluray_compat=0 / constrained_intra=0 / bframes=3 / b_pyramid=2 / b_adapt=0 / b_bias=0 / direct=1 / weightb=1 / open_gop=0 / weightp=2 / keyint=250 / keyint_min=25 / scenecut=40 / intra_refresh=0 / rc_lookahead=50 / rc=2pass / mbtree=1 / bitrate=1750 / ratetol=1.0 / qcomp=0.60 / qpmin=0 / qpmax=69 / qpstep=4 / cplxblur=20.0 / qblur=0.5 / ip_ratio=1.40 / aq=1:1.00
Default : Yes
Forced : No
Audio
ID : 2
Format : MPEG Audio
Format version : Version 1
Format profile : Layer 3
Codec ID : A_MPEG/L3
Codec ID/Hint : MP3
Duration : 25mn 53s
Bit rate mode : Constant
Bit rate : 128 Kbps
Channel(s) : 1 channel
Sampling rate : 48.0 KHz
Compression mode : Lossy
Delay relative to video : 2ms
Stream size : 23.7 MiB (7%)
Title : Одноголосый профессиональный
Writing library : LAME3.97 (beta)
Language : English
Default : Yes
Forced : No



Релиз от:



   Похожие торренты   Торрент   Размер 
В этой теме нет новых непрочитанных сообщений. History Channel. Тайны древности: Неизвестный Иисус / The unknown Jesus (1999) DVDRip-AVC от Тorrent-Хzona

0 | 8

1.22 ГБ

В этой теме нет новых непрочитанных сообщений. Discovery Channel: Тайны монархов: Смертельна страсть. Монархи и любовь / Royal Secrets: Lust. Kiss Of Death (1996) DVDRip-AVC от Тorrent-Хzona

3 | 2

695.06 МБ

В этой теме нет новых непрочитанных сообщений. History Channel: Загадки Библии: Коллекционное издание / History Channel: Mysteries of the Bible (1994-1998) DVDRip-AVC от Тorrent-Хzona

38 | 12

2.33 ГБ

В этой теме нет новых непрочитанных сообщений. Discovery: Красота змей / Discovery: The Beauty Of Snakes (2006) HDTVRip-AVC от Тorrent-Хzona | P1

35 | 2

691.21 МБ

В этой теме нет новых непрочитанных сообщений. Discovery: Огненные шары из космоса / Discovery: Fireballs From Space (2001) HDTVRip от Тorrent-Хzona

0 | 4

501.19 МБ

В этой теме нет новых непрочитанных сообщений. Discovery: Туристические жемчужины Диск 2 / Discovery HD Getaways Disc 2 (2004) HDTVRip-AVC от Тorrent-Хzona | P1

1 | 1

1.5 ГБ

В этой теме нет новых непрочитанных сообщений. Discovery: Туристические жемчужины Диск 1 / Discovery HD Getaways Disc 1 (2004) HDTVRip-AVC от Тorrent-Хzona | P1

1 | 1

1.45 ГБ




Вы не можете начинать темы
Вы не можете отвечать на сообщения
Вы не можете редактировать свои сообщения
Вы не можете удалять свои сообщения
Вы не можете добавлять вложения

Перейти:  
Для Мосгорсуда, Роскомнадзора и рекламодателей: mosgorsud-torrent[собачка]yandex.ru
 Вход
ppkBB3cker v.2 © 2008-2014 @ PPK
[ Time : 0.023s | 14 Queries | GZIP : Off ]

Торрент трекер RUTOR.IN, Не можете зайти на rutor.org? Какой новый адрес рутор? Какое зеркало рутор? Не работает rutor.org и зеркала? Тогда наш торрент специально для вас. Rutor.in неофициальное зеркало rutor. В случае если у Вас заблокирован rutor или вдруг Вы не можете на него зайти, то Вы без труда сможете скачать бесплатно и без рекламы последние новинки кино, игр, сериалов и прочего у нас, на Rutor.in. Не нужно использовать прокси, чтобы зайти на рутор, достаточно воспользоваться нашим ресурсом. Все новые фильмы, игры, сериалы, книги и музыка за 2013 и 2014 годы через торрент бесплатно. Скачивайте фильмы в хорошем качестве, игры для пк, xbox, playstation без регистрации. У нас вы найдете новые Зарубежные сериалы и Русские сериалы 2013, 2014, 2015 годов. Оставайтесь с нами, качайте любимые фильмы, игры, сериалы, книги и музыку.